<?xml version="1.0" standalone="no"?>
<!DOCTYPE svg PUBLIC "-//W3C//DTD SVG 1.1//EN" "http://www.w3.org/Graphics/SVG/1.1/DTD/svg11.dtd" >
<svg xmlns="http://www.w3.org/2000/svg">
<metadata>Generated by IcoMoon</metadata>
<defs>
<font id="openmct-symbols-16px" horiz-adv-x="1024">
<font-face units-per-em="1024" ascent="960" descent="-64" />
<missing-glyph horiz-adv-x="1024" />
<glyph unicode="&#x20;" horiz-adv-x="512" d="" />
<glyph unicode="&#xe900;" glyph-name="icon-alert-rect" d="M896 938.667h-768c-70.6-0.2-127.8-57.4-128-128v-768c0.2-70.6 57.4-127.8 128-128h768c70.6 0.2 127.8 57.4 128 128v768c-0.2 70.6-57.4 127.8-128 128zM576 42.667h-128v128h128v-128zM597.8 426.667l-37.8-192h-96l-37.8 192v384h171.8v-384z" />
<glyph unicode="&#xe901;" glyph-name="icon-alert-triangle" d="M998.2 89.867l-422.6 739.6c-35 61.2-92 61.2-127 0l-422.8-739.6c-35-61.2-6-111.2 64.4-111.2h843.4c70.6 0 99.6 50 64.6 111.2zM576 42.667h-128v128h128v-128zM597.8 426.667l-37.8-192h-96l-37.8 192v256h171.8v-256z" />
<glyph unicode="&#xe902;" glyph-name="icon-arrow-down" d="M512 170.667l512 512h-1024z" />
<glyph unicode="&#xe903;" glyph-name="icon-arrow-left" d="M256 426.667l512-512v1024z" />
<glyph unicode="&#xe904;" glyph-name="icon-arrow-right" d="M768 426.667l-512 512v-1024z" />
<glyph unicode="&#xe905;" glyph-name="icon-arrow-double-up" d="M510 428.667l512-512h-1024zM510 940.667l512-512h-1024z" />
<glyph unicode="&#xe906;" glyph-name="icon-arrow-tall-up" d="M512 938.667l512-1024h-1024z" />
<glyph unicode="&#xe907;" glyph-name="icon-arrow-tall-down" d="M512-85.333l-512 1024h1024z" />
<glyph unicode="&#xe908;" glyph-name="icon-arrow-double-down" d="M510 428.667l-512 512h1024zM510-83.333l-512 512h1024z" />
<glyph unicode="&#xe909;" glyph-name="icon-arrow-up" d="M512 682.667l-512-512h1024z" />
<glyph unicode="&#xe910;" glyph-name="icon-asterisk" d="M1004.166 598.209l-97.522 168.916-330.534-229.414 33.414 400.956h-195.048l33.414-400.956-330.534 229.414-97.522-168.916 363.944-171.542-363.944-171.542 97.522-168.916 330.534 229.414-33.414-400.956h195.048l-33.414 400.956 330.534-229.414 97.522 168.916-363.944 171.542z" />
<glyph unicode="&#xe911;" glyph-name="icon-bell" d="M512-85.333c106 0 192 86 192 192h-384c0-106 86-192 192-192zM896 490.667v64c0 212-172 384-384 384s-384-172-384-384v-64c0-70.6-57.4-128-128-128v-128h1024v128c-70.6 0-128 57.4-128 128z" />
<glyph unicode="&#xe912;" glyph-name="icon-box" d="M0 938.667h1024v-1024h-1024v1024z" />
<glyph unicode="&#xe913;" glyph-name="icon-box-with-arrow-cursor" d="M894 940.667h-768c-70.4 0-128-57.6-128-128v-768c0-70.4 57.6-128 128-128h400c-2.2 3.8-4 7.6-5.8 11.4l-255.2 576.8c-21.4 48.4-10.8 105 26.6 142.4 24.4 24.4 57.2 37.4 90.4 37.4 17.4 0 35.2-3.6 51.8-11l576.6-255.4c4-1.8 7.8-3.8 11.4-5.8v400.2c0.2 70.4-57.4 128-127.8 128zM958.6 301.267l-576.6 255.4 255.4-576.6 64.6 128.6 192-192 128 128-192 192z" />
<glyph unicode="&#xe914;" glyph-name="icon-check" d="M1024 938.667l-640-640-384 384v-384l384-384 640 640z" />
<glyph unicode="&#xe915;" glyph-name="icon-connectivity" d="M704 362.667c0-70.4-57.6-128-128-128h-128c-70.4 0-128 57.6-128 128v128c0 70.4 57.6 128 128 128h128c70.4 0 128-57.6 128-128v-128zM1024 426.667l-192 320v-640zM0 426.667l192 320v-640z" />
<glyph unicode="&#xe916;" glyph-name="icon-database-in-brackets" d="M768 586.667c0-53.019-114.615-96-256-96s-256 42.981-256 96c0 53.019 114.615 96 256 96s256-42.981 256-96zM768 266.667v256c0-53-114.6-96-256-96s-256 43-256 96v-256c0-53 114.6-96 256-96s256 43 256 96zM832 938.667h-128v-192h127.6c0.2 0 0.2-0.2 0.4-0.4v-639.4c0-0.2-0.2-0.2-0.4-0.4h-127.6v-192h128c105.6 0 192 86.4 192 192v640.2c0 105.6-86.4 192-192 192zM192 107.067v639.4c0 0.2 0.2 0.2 0.4 0.4h127.6v191.8h-128c-105.6 0-192-86.4-192-192v-640c0-105.6 86.4-192 192-192h128v192h-127.6c-0.2 0-0.4 0.2-0.4 0.4z" />
<glyph unicode="&#xe917;" glyph-name="icon-eye-open" d="M512 822.267c-245.8 0-452.2-168-510.8-395.6 58.6-227.4 265-395.6 510.8-395.6s452.2 168 510.8 395.6c-58.6 227.4-265 395.6-510.8 395.6zM829.2 350.267c-22.6-34.4-50.6-64.8-83-90.4-32.8-25.8-69-45.6-108-59.4-40.4-14.2-82.8-21.4-126-21.4s-85.8 7.2-126 21.4c-39 13.8-75.4 33.8-108 59.4-32.4 25.6-60.4 55.8-83 90.4-15.8 24-28.8 49.6-38.6 76.4 10 26.8 23 52.4 38.6 76.4 22.6 34.4 50.6 64.8 83 90.4 32.8 25.8 69 45.6 108 59.4 40.4 14.2 82.8 21.4 126 21.4s85.8-7.2 126-21.4c39-13.8 75.4-33.8 108-59.4 32.4-25.6 60.4-55.8 83-90.4 15.8-24 28.8-49.6 38.6-76.4-9.8-26.8-22.8-52.4-38.6-76.4zM704 426.667c0-106.039-85.961-192-192-192s-192 85.961-192 192c0 106.039 85.961 192 192 192s192-85.961 192-192z" />
<glyph unicode="&#xe918;" glyph-name="icon-gear" d="M1024 362.667v128l-140.976 35.244c-8.784 32.922-21.818 64.106-38.504 92.918l74.774 124.622-90.51 90.51-124.622-74.774c-28.812 16.686-59.996 29.72-92.918 38.504l-35.244 140.976h-128l-35.244-140.976c-32.922-8.784-64.106-21.818-92.918-38.504l-124.622 74.774-90.51-90.51 74.774-124.622c-16.686-28.812-29.72-59.996-38.504-92.918l-140.976-35.244v-128l140.976-35.244c8.784-32.922 21.818-64.106 38.504-92.918l-74.774-124.622 90.51-90.51 124.622 74.774c28.812-16.686 59.996-29.72 92.918-38.504l35.244-140.976h128l35.244 140.976c32.922 8.784 64.106 21.818 92.918 38.504l124.622-74.774 90.51 90.51-74.774 124.622c16.686 28.812 29.72 59.996 38.504 92.918l140.976 35.244zM704 426.667c0-106.038-85.962-192-192-192s-192 85.962-192 192 85.962 192 192 192 192-85.962 192-192z" />
<glyph unicode="&#xe919;" glyph-name="icon-hourglass" d="M1024 938.667h-1024c0-282.8 229.2-512 512-512s512 229.2 512 512zM512 554.667c-102.6 0-199 40-271.6 112.4-41.2 41.2-72 90.2-90.8 143.6h724.6c-18.8-53.4-49.6-102.4-90.8-143.6-72.4-72.4-168.8-112.4-271.4-112.4zM512 426.667c-282.8 0-512-229.2-512-512h1024c0 282.8-229.2 512-512 512z" />
<glyph unicode="&#xe920;" glyph-name="icon-info" d="M512 938.667c-282.8 0-512-229.2-512-512s229.2-512 512-512 512 229.2 512 512-229.2 512-512 512zM512 810.667c70.6 0 128-57.4 128-128s-57.4-128-128-128c-70.6 0-128 57.4-128 128s57.4 128 128 128zM704 106.667h-384v128h64v256h256v-256h64v-128z" />
<glyph unicode="&#xe921;" glyph-name="icon-link" d="M1024 426.667l-512 512v-307.2l-512-204.8v-256h512v-256z" />
<glyph unicode="&#xe922;" glyph-name="icon-lock" d="M832 554.667h-32v96c0 158.8-129.2 288-288 288s-288-129.2-288-288v-96h-32c-70.4 0-128-57.6-128-128v-384c0-70.4 57.6-128 128-128h640c70.4 0 128 57.6 128 128v384c0 70.4-57.6 128-128 128zM416 650.667c0 53 43 96 96 96s96-43 96-96v-96h-192v96z" />
<glyph unicode="&#xe923;" glyph-name="icon-minus" d="M960 298.667c35.2 0 64 28.8 64 64v128c0 35.2-28.8 64-64 64h-896c-35.2 0-64-28.8-64-64v-128c0-35.2 28.8-64 64-64h896z" />
<glyph unicode="&#xe924;" glyph-name="icon-people" d="M704 618.667h64c70.4 0 128 57.6 128 128v64c0 70.4-57.6 128-128 128h-64c-70.4 0-128-57.6-128-128v-64c0-70.4 57.6-128 128-128zM256 618.667h64c70.4 0 128 57.6 128 128v64c0 70.4-57.6 128-128 128h-64c-70.4 0-128-57.6-128-128v-64c0-70.4 57.6-128 128-128zM832 554.667h-192c-34.908 0-67.716-9.448-96-25.904 57.278-33.324 96-95.404 96-166.096v-448h384v448c0 105.6-86.4 192-192 192zM384 554.667h-192c-105.6 0-192-86.4-192-192v-448h576v448c0 105.6-86.4 192-192 192z" />
<glyph unicode="&#xe925;" glyph-name="icon-person" d="M768 682.667c0-105.6-86.4-192-192-192h-128c-105.6 0-192 86.4-192 192v64c0 105.6 86.4 192 192 192h128c105.6 0 192-86.4 192-192v-64zM64-85.333v192c0 140.8 115.2 256 256 256h384c140.8 0 256-115.2 256-256v-192z" />
<glyph unicode="&#xe926;" glyph-name="icon-plus" d="M960 554.667h-330v320c0 35.2-28.8 64-64 64h-108c-35.2 0-64-28.8-64-64v-320h-330c-35.2 0-64-28.8-64-64v-128c0-35.2 28.8-64 64-64h330v-320c0-35.2 28.8-64 64-64h108c35.2 0 64 28.8 64 64v320h330c35.2 0 64 28.8 64 64v128c0 35.2-28.8 64-64 64z" />
<glyph unicode="&#xe927;" glyph-name="icon-trash" d="M832 810.667h-192.36v64c0 35.2-28.8 64-64 64h-128c-35.2 0-64-28.8-64-64v-64h-191.64c-105.6 0-192-72-192-160s0-160 0-160h64v-384c0-105.6 86.4-192 192-192h512c105.6 0 192 86.4 192 192v384h64c0 0 0 72 0 160s-86.4 160-192 160zM320 106.667h-128v384h128v-384zM576 106.667h-128v384h128v-384zM832 106.667h-128v384h128v-384z" />
<glyph unicode="&#xe928;" glyph-name="icon-x" d="M384 426.667l-365.332-365.332c-24.89-24.89-24.89-65.62 0-90.51l37.49-37.49c24.89-24.89 65.62-24.89 90.51 0 0 0 365.332 365.332 365.332 365.332l365.332-365.332c24.89-24.89 65.62-24.89 90.51 0l37.49 37.49c24.89 24.89 24.89 65.62 0 90.51l-365.332 365.332c0 0 365.332 365.332 365.332 365.332 24.89 24.89 24.89 65.62 0 90.51l-37.49 37.49c-24.89 24.89-65.62 24.89-90.51 0 0 0-365.332-365.332-365.332-365.332l-365.332 365.332c-24.89 24.89-65.62 24.89-90.51 0l-37.49-37.49c-24.89-24.89-24.89-65.62 0-90.51 0 0 365.332-365.332 365.332-365.332z" />
<glyph unicode="&#xe1000;" glyph-name="icon-arrows-out" d="M0 426.667l256-256v512zM512 938.667l-256-256h512zM512-85.333l256 256h-512zM768 682.667v-512l256 256z" />
<glyph unicode="&#xe1001;" glyph-name="icon-arrows-right-left" d="M1024 426.667l-448-512v1024zM448 938.667l-448-512 448-512z" />
<glyph unicode="&#xe1002;" glyph-name="icon-arrows-up-down" d="M512 938.667l512-448h-1024zM0 362.667l512-448 512 448z" />
<glyph unicode="&#xe1003;" glyph-name="icon-box-with-dashed-lines" d="M640 682.667h-256c-70.4 0-128-57.6-128-128v-256c0-70.4 57.6-128 128-128h256c70.4 0 128 57.6 128 128v256c0 70.4-57.6 128-128 128zM0 938.667h192v-192h-192v192zM256 938.667h192v-128h-192v128zM576 938.667h192v-128h-192v128zM256 42.667h192v-128h-192v128zM576 42.667h192v-128h-192v128zM0 362.667h128v-192h-128v192zM0 682.667h128v-192h-128v192zM896 362.667h128v-192h-128v192zM896 682.667h128v-192h-128v192zM832 938.667h192v-192h-192v192zM0 106.667h192v-192h-192v192zM832 106.667h192v-192h-192v192z" />
<glyph unicode="&#xe1004;" glyph-name="icon-bullet" d="M832 186.667c0-44-36-80-80-80h-480c-44 0-80 36-80 80v480c0 44 36 80 80 80h480c44 0 80-36 80-80v-480z" />
<glyph unicode="&#xe1005;" glyph-name="icon-calendar" d="M896 938.667h-768c-70.4 0-128-57.6-128-128v-768c0-70.4 57.6-128 128-128h768c70.4 0 128 57.6 128 128v768c0 70.4-57.6 128-128 128zM640 490.667h-256v192h256v-192zM384 426.667h256v-192h-256v192zM320 234.667h-256v192h256v-192zM320 682.667v-192h-256v192h256zM128-21.333c-17 0-33 6.6-45.2 18.8s-18.8 28.2-18.8 45.2v128h256v-192h-192zM384-21.333v192h256v-192h-256zM960 42.667c0-17-6.6-33-18.8-45.2s-28.2-18.8-45.2-18.8h-192v192h256v-128zM960 234.667h-256v192h256v-192zM960 490.667h-256v192h256v-192z" />
<glyph unicode="&#xe1006;" glyph-name="icon-chain-links" d="M958.4 873.067c-43.8 43.8-101 65.6-158.4 65.6s-114.6-21.8-158.4-65.6l-128-128c-74-74-85.4-187-34-273l-12.8-12.8c-35.4 20.8-75 31.4-114.8 31.4-57.4 0-114.6-21.8-158.4-65.6l-128-128c-87.4-87.4-87.4-229.4 0-316.8 43.8-43.8 101-65.6 158.4-65.6s114.6 21.8 158.4 65.6l128 128c74 74 85.4 187 34 273l12.8 12.8c35.2-21 75-31.6 114.6-31.6 57.4 0 114.6 21.8 158.4 65.6l128 128c87.6 87.6 87.6 229.6 0.2 317zM419.8 198.867l-128-128c-18-18.2-42.2-28.2-67.8-28.2s-49.8 10-67.8 28.2c-37.4 37.4-37.4 98.4 0 135.8l128 128c18.2 18.2 42.2 28.2 67.8 28.2 5.6 0 11.2-0.6 16.8-1.4l-55.6-55.6c-10.4-10.4-16.2-24.2-16.2-38.8s5.8-28.6 16.2-38.8c10.4-10.4 24.2-16.2 38.8-16.2s28.6 5.8 38.8 16.2l55.6 55.6c5.4-30.4-3.6-62.2-26.6-85zM867.8 646.867l-128-128c-18-18.2-42.2-28.2-67.8-28.2-5.6 0-11.2 0.6-16.8 1.4l55.6 55.6c10.4 10.4 16.2 24.2 16.2 38.8s-5.8 28.6-16.2 38.8c-10.4 10.4-24.2 16.2-38.8 16.2s-28.6-5.8-38.8-16.2l-55.6-55.6c-5.2 29.8 3.6 61.6 26.6 84.6l128 128c18 18.4 42.2 28.4 67.8 28.4s49.8-10 67.8-28.2c37.6-37.4 37.6-98.2 0-135.6z" />
<glyph unicode="&#xe1009;" glyph-name="icon-download" d="M832 362.667v-255.66l-0.34-0.34-639.66 0.34v255.66h-192v-256c0-105.6 86.4-192 192-192h640c105.6 0 192 86.4 192 192v256h-192zM512 298.667l448 448h-256v192h-384v-192h-256l448-448z" />
<glyph unicode="&#xe1010;" glyph-name="icon-duplicate" d="M640 682.667v128c0 70.4-57.6 128-128 128h-384c-70.4 0-128-57.6-128-128v-384c0-70.4 57.6-128 128-128h128v139.6c0 134.8 109.6 244.4 244.4 244.4h139.6zM896 554.667h-384c-70.4 0-128-57.6-128-128v-384c0-70.4 57.6-128 128-128h384c70.4 0 128 57.6 128 128v384c0 70.4-57.6 128-128 128z" />
<glyph unicode="&#xe1011;" glyph-name="icon-folder-new" d="M896 746.667h-320c-16.4 16.4-96.8 96.8-109.2 109.2l-37.4 37.4c-25 25-74.2 45.4-109.4 45.4h-256c-35.2 0-64-28.8-64-64v-384c0 70.4 57.6 128 128 128h768c70.4 0 128-57.6 128-128v128c0 70.4-57.6 128-128 128zM896 490.667h-768c-70.4 0-128-57.6-128-128v-320c0-70.4 57.6-128 128-128h768c70.4 0 128 57.6 128 128v320c0 70.4-57.6 128-128 128zM704 138.667h-128v-128h-128v128h-128v128h128v128h128v-128h128v-128z" />
<glyph unicode="&#xe1012;" glyph-name="icon-fullscreen-expand" d="M192.344 106.667c-0.118 0.1-0.244 0.224-0.344 0.344v191.656h-192v-192c0-105.6 86.4-192 192-192h192v192h-191.656zM192 746.323c0.1 0.118 0.224 0.244 0.344 0.344h191.656v192h-192c-105.6 0-192-86.4-192-192v-192h192v191.656zM832 938.667h-192v-192h191.656c0.118-0.1 0.244-0.226 0.344-0.344v-191.656h192v192c0 105.6-86.4 192-192 192zM832 107.011c-0.1-0.118-0.224-0.244-0.344-0.344h-191.656v-192h192c105.6 0 192 86.4 192 192v192h-192v-191.656z" />
<glyph unicode="&#xe1013;" glyph-name="icon-fullscreen-collapse" d="M191.656 106.667c0.118-0.1 0.244-0.224 0.344-0.344v-191.656h192v192c0 105.6-86.4 192-192 192h-192v-192h191.656zM192 747.011c-0.1-0.118-0.224-0.244-0.344-0.344h-191.656v-192h192c105.6 0 192 86.4 192 192v192h-192v-191.656zM832 554.667h192v192h-191.656c-0.118 0.1-0.244 0.226-0.344 0.344v191.656h-192v-192c0-105.6 86.4-192 192-192zM832 106.323c0.1 0.118 0.224 0.244 0.344 0.344h191.656v192h-192c-105.6 0-192-86.4-192-192v-192h192v191.656z" />
<glyph unicode="&#xe1014;" glyph-name="icon-layers" d="M1024 554.667l-512 384-512-384 512-384zM512 42.667l-426.666 320-85.334-64 512-384 512 384-85.334 64z" />
<glyph unicode="&#xe1015;" glyph-name="icon-line-horz" d="M64 362.667c-35.346 0-64 28.654-64 64s28.654 64 64 64h896c35.346 0 64-28.654 64-64s-28.654-64-64-64h-896z" />
<glyph unicode="&#xe1016;" glyph-name="icon-magnify" d="M1024 42.667l-201.662 201.662c47.922 72.498 73.662 157.434 73.662 246.338 0 119.666-46.6 232.168-131.216 316.784s-197.118 131.216-316.784 131.216-232.168-46.6-316.784-131.216-131.216-197.118-131.216-316.784 46.6-232.168 131.216-316.784 197.118-131.216 316.784-131.216c88.904 0 173.84 25.74 246.338 73.662l201.662-201.662 128 128zM448 234.667c-141.16 0-256 114.842-256 256 0 141.16 114.84 256 256 256 141.158 0 256-114.84 256-256 0-141.158-114.842-256-256-256z" />
<glyph unicode="&#xe1017;" glyph-name="icon-magnify-in" d="M640 554.667h-128v128h-128v-128h-128v-128h128v-128h128v128h128zM1024 42.667l-201.662 201.662c47.922 72.498 73.662 157.434 73.662 246.338 0 119.666-46.6 232.168-131.216 316.784s-197.118 131.216-316.784 131.216c-119.666 0-232.168-46.6-316.784-131.216s-131.216-197.118-131.216-316.784c0-119.666 46.6-232.168 131.216-316.784s197.118-131.216 316.784-131.216c88.904 0 173.84 25.74 246.338 73.662l201.662-201.662 128 128zM448 234.667c-141.16 0-256 114.842-256 256 0 141.16 114.84 256 256 256 141.158 0 256-114.84 256-256 0-141.158-114.842-256-256-256z" />
<glyph unicode="&#xe1018;" glyph-name="icon-magnify-out" d="M256 554.667h384v-128h-384v128zM1024 42.667l-201.662 201.662c47.922 72.498 73.662 157.434 73.662 246.338 0 119.666-46.6 232.168-131.216 316.784s-197.118 131.216-316.784 131.216c-119.666 0-232.168-46.6-316.784-131.216s-131.216-197.118-131.216-316.784c0-119.666 46.6-232.168 131.216-316.784s197.118-131.216 316.784-131.216c88.904 0 173.84 25.74 246.338 73.662l201.662-201.662 128 128zM448 234.667c-141.16 0-256 114.842-256 256 0 141.16 114.84 256 256 256 141.158 0 256-114.84 256-256 0-141.158-114.842-256-256-256z" />
<glyph unicode="&#xe1019;" glyph-name="icon-menu" d="M0 938.667h1024v-256h-1024v256zM0 554.667h1024v-256h-1024v256zM0 170.667h1024v-256h-1024v256z" />
<glyph unicode="&#xe1020;" glyph-name="icon-move" d="M293.4 426.667l218.6 218.6 256-256v421.4c0 70.4-57.6 128-128 128h-512c-70.4 0-128-57.6-128-128v-512c0-70.4 57.6-128 128-128h421.4l-256 256zM1024 490.667h-128v-320l-384 384-128-128 384-384h-320v-128h576z" />
<glyph unicode="&#xe1021;" glyph-name="icon-new-window" d="M448 938.667v-128h320l-384-384 128-128 384 384v-320h128v576zM576 264.393v-157.382c-0.1-0.118-0.226-0.244-0.344-0.344h-383.312c-0.118 0.1-0.244 0.226-0.344 0.344v383.312c0.1 0.118 0.226 0.244 0.344 0.344h157.382l192 192h-349.726c-105.6 0-192-86.4-192-192v-384c0-105.6 86.4-192 192-192h384c105.6 0 192 86.4 192 192v349.726l-192-192z" />
<glyph unicode="&#xe1022;" glyph-name="icon-paint-bucket" d="M544 714.667v-224c0-88.4-71.6-160-160-160s-160 71.6-160 160v97.2l-197.4-196.4c-50-50-12.4-215.2 112.4-340s290-162.4 340-112.4l417 423.6-352 352zM896-85.333c70.6 0 128 57.4 128 128 0 108.6-128 192-128 192s-128-83.4-128-192c0-70.6 57.4-128 128-128zM384 426.667c-35.4 0-64 28.6-64 64v384c0 35.4 28.6 64 64 64s64-28.6 64-64v-384c0-35.4-28.6-64-64-64z" />
<glyph unicode="&#xe1023;" glyph-name="icon-pause" d="M126 940.667h256v-1024h-256v1024zM638 940.667h256v-1024h-256v1024z" />
<glyph unicode="&#xe1024;" glyph-name="icon-pencil" d="M922.344 836.987c-38.612 38.596-81.306 69.232-120.304 86.324-68.848 30.25-104.77 9.078-120.194-6.344l-516.228-516.216-3.136-9.152-162.482-476.932 485.998 165.612 6.73 6.806 509.502 509.506c9.882 9.866 21.768 27.77 21.768 56.578 0.002 50.71-38.996 121.148-101.654 183.818zM237.982 83.007l-69.73 69.728 69.25 203.228 18.498 6.704h64v-128h128v-64l-6.846-18.506-203.172-69.154z" />
<glyph unicode="&#xe1025;" glyph-name="icon-play" d="M1024 426.667l-1024-512v1024z" />
<glyph unicode="&#xe1026;" glyph-name="icon-plot-resource" d="M255.884 234.667c0.040 0.034 0.082 0.074 0.116 0.116v127.884c0 70.58 57.42 128 128 128h255.884c0.040 0.034 0.082 0.074 0.116 0.116v127.884c0 70.58 57.42 128 128 128h143.658c-93.832 117.038-237.98 192-399.658 192-282.77 0-512-229.23-512-512 0-67.904 13.25-132.704 37.256-192h218.628zM768.116 618.667c-0.040-0.034-0.082-0.074-0.116-0.116v-127.884c0-70.58-57.42-128-128-128h-255.884c-0.040-0.034-0.082-0.074-0.116-0.116v-127.884c0-70.58-57.42-128-128-128h-143.658c93.832-117.038 237.98-192 399.658-192 282.77 0 512 229.23 512 512 0 67.904-13.25 132.704-37.256 192h-218.628z" />
<glyph unicode="&#xe1027;" glyph-name="icon-pointer-left" horiz-adv-x="512" d="M510-85.333l-256 512 256 512h-256l-256-512 256-512z" />
<glyph unicode="&#xe1028;" glyph-name="icon-pointer-right" horiz-adv-x="512" d="M-2 938.667l256-512-256-512h256l256 512-256 512z" />
<glyph unicode="&#xe1029;" glyph-name="icon-refresh" d="M1012.8 524.467v391.6l-127.6-127.4c-96.6 96.8-225.2 150-362 150s-265.2-53.2-362-150c-96.8-96.8-150-225.2-150-362s53.2-265.4 150-362c96.8-96.8 225.2-150 362-150s265.4 53.2 362 150l-136.6 136.6c-124.2-124.2-326.4-124.2-450.8 0-124.2 124.2-124.2 326.4 0 450.8 124.2 124.2 326.4 124.2 450.8 0l-127.4-127.4h391.6z" />
<glyph unicode="&#xe1030;" glyph-name="icon-save" d="M192.2 362.667c-0.2 0-0.2 0 0 0l-0.2-448h640v447.8c0 0 0 0-0.2 0.2h-639.6zM978.8 727.867l-165.4 165.4c-25 25-74.2 45.4-109.4 45.4h-576c-70.4 0-128-57.6-128-128v-768c0-70.4 57.6-128 128-128v448c0 35.2 28.8 64 64 64h640c35.2 0 64-28.8 64-64v-448c70.4 0 128 57.6 128 128v576c0 35.2-20.4 84.4-45.2 109.2zM704 682.667c0-35.2-28.8-64-64-64h-448c-35.2 0-64 28.8-64 64v192h320v-192h128v192h128v-192z" />
<glyph unicode="&#xe1031;" glyph-name="icon-sine" d="M1022.294 426.667c-1.746 7.196-3.476 14.452-5.186 21.786-20.036 85.992-53.302 208.976-98 306.538-22.42 48.938-45.298 86.556-69.946 115.006-48.454 55.93-98.176 67.67-131.356 67.67s-82.902-11.74-131.356-67.672c-24.648-28.45-47.528-66.068-69.948-115.006-44.696-97.558-77.962-220.544-98-306.538-21.646-92.898-46.444-175.138-71.71-237.836-16.308-40.46-30.222-66.358-40.6-82.604-10.378 16.246-24.292 42.142-40.6 82.604-23.272 57.75-46.144 132.088-66.524 216.052h-197.362c1.746-7.196 3.476-14.452 5.186-21.786 20.036-85.992 53.302-208.976 98-306.538 22.42-48.938 45.298-86.556 69.946-115.006 48.454-55.932 98.176-67.672 131.356-67.672s82.902 11.74 131.356 67.672c24.648 28.45 47.528 66.068 69.948 115.006 44.696 97.558 77.962 220.544 98 306.538 21.646 92.898 46.444 175.138 71.71 237.836 16.308 40.46 30.222 66.358 40.6 82.604 10.378-16.246 24.292-42.142 40.6-82.604 23.274-57.748 46.146-132.086 66.526-216.050h197.36z" />
<glyph unicode="&#xe1032;" glyph-name="icon-T" d="M0 938.667v-256h128v64h256v-704h-192v-128h640v128h-192v704h256v-64h128v256z" />
<glyph unicode="&#xe1033;" glyph-name="icon-thumbs-strip" d="M448 556.667c0-35.2-28.8-64-64-64h-320c-35.2 0-64 28.8-64 64v320c0 35.2 28.8 64 64 64h320c35.2 0 64-28.8 64-64v-320zM1024 556.667c0-35.2-28.8-64-64-64h-320c-35.2 0-64 28.8-64 64v320c0 35.2 28.8 64 64 64h320c35.2 0 64-28.8 64-64v-320zM448-19.333c0-35.2-28.8-64-64-64h-320c-35.2 0-64 28.8-64 64v320c0 35.2 28.8 64 64 64h320c35.2 0 64-28.8 64-64v-320zM1024-19.333c0-35.2-28.8-64-64-64h-320c-35.2 0-64 28.8-64 64v320c0 35.2 28.8 64 64 64h320c35.2 0 64-28.8 64-64v-320z" />
<glyph unicode="&#xe1034;" glyph-name="icon-two-parts-both" d="M896 938.667h-768c-70.4 0-128-57.6-128-128v-768c0-70.4 57.6-128 128-128h768c70.4 0 128 57.6 128 128v768c0 70.4-57.6 128-128 128zM128 810.667h320v-768h-320v768zM896 42.667h-320v768h320v-768z" />
<glyph unicode="&#xe1035;" glyph-name="icon-two-parts-one-only" d="M896 938.667h-768c-70.4 0-128-57.6-128-128v-768c0-70.4 57.6-128 128-128h768c70.4 0 128 57.6 128 128v768c0 70.4-57.6 128-128 128zM896 42.667h-320v768h320v-768z" />
<glyph unicode="&#xe1036;" glyph-name="icon-x-in-circle" d="M512 938.667c-282.8 0-512-229.2-512-512s229.2-512 512-512 512 229.2 512 512-229.2 512-512 512zM832 234.667l-128-128-192 192-192-192-128 128 192 192-192 192 128 128 192-192 192 192 128-128-192-192 192-192z" />
<glyph unicode="&#xe1100;" glyph-name="icon-activity" d="M576 874.667h-256l320-320h-290.256c-44.264 76.516-126.99 128-221.744 128h-128v-512h128c94.754 0 177.48 51.484 221.744 128h290.256l-320-320h256l448 448-448 448z" />
<glyph unicode="&#xe1101;" glyph-name="icon-activity-mode" d="M512 938.667c-214.866 0-398.786-132.372-474.744-320h90.744c56.86 0 107.938-24.724 143.094-64h240.906l-192 192h256l320-320-320-320h-256l192 192h-240.906c-35.156-39.276-86.234-64-143.094-64h-90.744c75.958-187.628 259.878-320 474.744-320 282.77 0 512 229.23 512 512s-229.23 512-512 512z" />
<glyph unicode="&#xe1102;" glyph-name="icon-autoflow-tabular" d="M192 938.667c-105.6 0-192-86.4-192-192v-640c0-105.6 86.4-192 192-192h64v1024h-64zM384 938.667h256v-1024h-256v1024zM832 938.667h-64v-704h256v512c0 105.6-86.4 192-192 192z" />
<glyph unicode="&#xe1103;" glyph-name="icon-clock" d="M512 938.667c-282.77 0-512-229.23-512-512s229.23-512 512-512 512 229.23 512 512-229.23 512-512 512zM768 362.667h-256c-35.2 0-64 28.8-64 64v384c0 35.2 28.8 64 64 64s64-28.8 64-64v-320h192c35.2 0 64-28.8 64-64s-28.8-64-64-64z" />
<glyph unicode="&#xe1104;" glyph-name="icon-database" d="M1024 746.667c0-106.039-229.23-192-512-192s-512 85.961-512 192c0 106.039 229.23 192 512 192s512-85.961 512-192zM512 426.667c-282.77 0-512 85.962-512 192v-512c0-106.038 229.23-192 512-192s512 85.962 512 192v512c0-106.038-229.23-192-512-192z" />
<glyph unicode="&#xe1105;" glyph-name="icon-database-query" d="M683.52 119.381c-50.782-28.456-109.284-44.714-171.52-44.714-194.094 0-352 157.906-352 352s157.906 352 352 352 352-157.906 352-352c0-62.236-16.258-120.738-44.714-171.52l191.692-191.692c8.516 13.89 13.022 28.354 13.022 43.212v640c0 106.038-229.23 192-512 192s-512-85.962-512-192v-640c0-106.038 229.23-192 512-192 126.11 0 241.548 17.108 330.776 45.46l-159.256 159.254zM352 426.667c0-88.224 71.776-160 160-160s160 71.776 160 160-71.776 160-160 160-160-71.776-160-160z" />
<glyph unicode="&#xe1106;" glyph-name="icon-dataset" d="M896 746.667h-320c-16.4 16.4-96.8 96.8-109.2 109.2l-37.4 37.4c-25 25-74.2 45.4-109.4 45.4h-256c-35.2 0-64-28.8-64-64v-384c0 70.4 57.6 128 128 128h768c70.4 0 128-57.6 128-128v128c0 70.4-57.6 128-128 128zM896 490.667h-768c-70.4 0-128-57.6-128-128v-320c0-70.4 57.6-128 128-128h768c70.4 0 128 57.6 128 128v320c0 70.4-57.6 128-128 128zM320 42.667h-128v320h128v-320zM576 42.667h-128v320h128v-320zM832 42.667h-128v320h128v-320z" />
<glyph unicode="&#xe1107;" glyph-name="icon-datatable" d="M1024 746.667c0-106.039-229.23-192-512-192s-512 85.961-512 192c0 106.039 229.23 192 512 192s512-85.961 512-192zM512 426.667c-282.8 0-512 86-512 192v-512c0-106 229.2-192 512-192s512 86 512 192v512c0-106-229.2-192-512-192zM896 363.667v-256c-36.6-15.6-79.8-28.8-128-39.4v256c48.2 10.6 91.4 23.8 128 39.4zM256 324.267v-256c-48.2 10.4-91.4 23.8-128 39.4v256c36.6-15.6 79.8-28.8 128-39.4zM384 48.667v256c41-4 83.8-6 128-6s87 2.2 128 6v-256c-41-4-83.8-6-128-6s-87 2.2-128 6z" />
<glyph unicode="&#xe1108;" glyph-name="icon-dictionary" d="M832 298.667c105.6 0 192 86.4 192 192v256c0 105.6-86.4 192-192 192v-320l-128 64-128-64v320h-384c-105.6 0-192-86.4-192-192v-640c0-105.6 86.4-192 192-192h640c105.6 0 192 86.4 192 192v192c0-105.6-86.4-192-192-192h-640v192h640z" />
<glyph unicode="&#xe1109;" glyph-name="icon-folder" d="M896 746.667h-320c-16.4 16.4-96.8 96.8-109.2 109.2l-37.4 37.4c-25 25-74.2 45.4-109.4 45.4h-256c-35.2 0-64-28.8-64-64v-384c0 70.4 57.6 128 128 128h768c70.4 0 128-57.6 128-128v128c0 70.4-57.6 128-128 128zM896 490.667h-768c-70.4 0-128-57.6-128-128v-320c0-70.4 57.6-128 128-128h768c70.4 0 128 57.6 128 128v320c0 70.4-57.6 128-128 128z" />
<glyph unicode="&#xe1110;" glyph-name="icon-image" d="M896 938.667h-768c-70.4 0-128-57.6-128-128v-768c0-70.4 57.6-128 128-128h768c70.4 0 128 57.6 128 128v768c0 70.4-57.6 128-128 128zM896 42.667h-768v768h768v-768zM320 682.667l-128-128v-448h640v320l-128 128-128-128z" />
<glyph unicode="&#xe1111;" glyph-name="icon-layout" d="M448 938.667h-256c-105.6 0-192-86.4-192-192v-640c0-105.6 86.4-192 192-192h256v1024zM832 938.667h-256v-577.664h448v385.664c0 105.6-86.4 192-192 192zM576-85.333h256c105.6 0 192 86.4 192 192v129.664h-448v-321.664z" />
<glyph unicode="&#xe1112;" glyph-name="icon-object" d="M512-85.333l512 320v384l-512.020 320-511.98-320v-384l512-320zM512 746.667l358.4-224-358.4-224-358.4 224 358.4 224z" />
<glyph unicode="&#xe1113;" glyph-name="icon-object-unknown" d="M510 940.667l-512-320v-384l512-320 512 320v384l-512 320zM585.4 79.467c-21.2-20.8-46-30.8-76-30.8-31.2 0-56.2 9.8-76.2 29.6-20 20-29.6 44.8-29.6 76.2 0 30.4 10.2 55.2 31 76.2s45.2 31.2 74.8 31.2c29.6 0 54.2-10.4 75.6-32s31.8-46.4 31.8-76c-0.2-29-10.8-54-31.4-74.4zM638.2 392.067c-23.6-11.8-37.4-22-43.4-32.4-3.6-6.2-6-14.8-7.4-26.8v-41h-161.4v44.2c0 40.2 4.4 69.8 13 88 8 17.2 22.6 30.2 44.8 40l34.8 15.4c32 14.2 48.2 35.2 48.2 62.8 0 16-6 30.4-17.2 41.8-11.2 11.2-25.6 17.2-41.6 17.2-24 0-54.4-10-62.8-57.4l-2.2-12.2h-147l1.4 16.2c4 44.6 17 82.4 38.8 112.2 19.6 27 45.6 48.6 77 64.6s64.6 24 98.2 24c60.6 0 110.2-19.4 151.4-59.6 41.2-40 61.2-88 61.2-147.2 0-70.8-28.8-121.4-85.8-149.8z" />
<glyph unicode="&#xe1114;" glyph-name="icon-packet" d="M511.98 938.667l-511.98-320v-512c0-105.6 86.4-192 192-192h640c105.6 0 192 86.4 192 192v512l-512.020 320zM512 746.667l358.4-224-358.4-224-358.4 224 358.4 224z" />
<glyph unicode="&#xe1115;" glyph-name="icon-page" d="M702 430.667c-105.6 0-192 86.4-192 192v320h-320c-105.6 0-192-86.4-192-192v-640c0-105.6 86.4-192 192-192h640c105.6 0 192 86.4 192 192v320h-320zM766 558.667h256l-384 384v-256c0-70.4 57.6-128 128-128z" />
<glyph unicode="&#xe1116;" glyph-name="icon-session" d="M635.6 414.267c6.6-4.2 13.2-8.6 19.2-13.6l120.4-96.4c29.6-23.8 83.8-23.8 113.4 0l135.2 108c0.2 4.8 0.2 9.4 0.2 14.2 0 52.2-7.8 102.4-22.2 149.8l-154.8-123.6c-58.2-46.6-140.2-59.2-211.4-38.4zM248.6 304.467l120.4 96.4c58 46.4 140 59.2 211.2 38.4-6.6 4.2-13.2 8.6-19.2 13.6l-120.4 96.4c-29.6 23.8-83.8 23.8-113.4 0l-120.2-96.6c-40-32-91.4-48-143-48-21.6 0-43 2.8-63.8 8.4 0-0.6 0-1.2 0-1.6 5-3.4 10-6.8 14.6-10.6l120.4-96.4c29.8-23.8 83.8-23.8 113.4 0zM120.6 560.467l120.4 96.4c80.2 64.2 205.6 64.2 285.8 0l120.4-96.4c29.6-23.8 83.8-23.8 113.4 0l181 144.8c-91.2 140.4-249.6 233.4-429.6 233.4-238.6 0-439.2-163.2-496-384.2 30.8-17.6 77.8-15.6 104.6 6zM689 196.667l-120.4 96.4c-29.6 23.8-83.8 23.8-113.4 0l-120.2-96.4c-40-32-91.4-48-143-48-47.8 0-95.4 13.8-134.2 41.4 85.6-163.6 256.8-275.4 454.2-275.4s368.6 111.8 454.2 275.4c-80.4-57.4-199.8-55.2-277.2 6.6z" />
<glyph unicode="&#xe1117;" glyph-name="icon-tabular" d="M896 938.667h-768c-70.4 0-128-57.6-128-128v-768c0-70.4 57.6-128 128-128h768c70.4 0 128 57.6 128 128v768c0 70.4-57.6 128-128 128zM640 490.667h-256v192h256v-192zM384 426.667h256v-192h-256v192zM320 234.667h-256v192h256v-192zM320 682.667v-192h-256v192h256zM128-21.333c-17 0-33 6.6-45.2 18.8s-18.8 28.2-18.8 45.2v128h256v-192h-192zM384-21.333v192h256v-192h-256zM960 42.667c0-17-6.6-33-18.8-45.2s-28.2-18.8-45.2-18.8h-192v192h256v-128zM960 234.667h-256v192h256v-192zM960 490.667h-256v192h256v-192z" />
<glyph unicode="&#xe1118;" glyph-name="icon-tabular-lad" d="M896 938.667h-768c-70.606-0.215-127.785-57.394-128-127.979v-768.021c0.215-70.606 57.394-127.785 127.979-128h768.021c70.606 0.215 127.785 57.394 128 127.979v768.021c-0.215 70.606-57.394 127.785-127.979 128zM64 682.667h256v-192h-256v192zM64 426.667h256v-192h-256v192zM128-21.333c-35.26 0.214-63.786 28.74-64 63.98v128.020h256v-192h-192zM384-21.333v192h256v-192h-256zM960 42.667c-0.214-35.26-28.74-63.786-63.98-64h-192.020v192h256v-128zM960 426.667v-192h-576v192h64v64h-64v192h576v-192h-64v-64h64zM782.32 391.287l-110.32 55.16v172.22c0 17.673-14.327 32-32 32s-32-14.327-32-32v-211.78l145.68-72.84c4.172-2.133 9.1-3.383 14.32-3.383 17.675 0 32.003 14.328 32.003 32.003 0 12.454-7.114 23.247-17.501 28.536z" />
<glyph unicode="&#xe1119;" glyph-name="icon-tabular-lad-set" d="M128 170.667v576c-70.606-0.215-127.785-57.394-128-127.979v-576.021c0.215-70.606 57.394-127.785 127.979-128h576.021c70.606 0.215 127.785 57.394 128 127.979l-576 0.021c-70.606 0.215-127.785 57.394-128 127.979zM896 938.667h-576c-70.606-0.215-127.785-57.394-128-127.979v-576.021c0.215-70.606 57.394-127.785 127.979-128h576.021c70.606 0.215 127.785 57.394 128 127.979v576.021c-0.215 70.606-57.394 127.785-127.979 128zM256 746.667h192v-128h-192v128zM256 554.667h192v-192h-192v192zM320 170.667c-35.26 0.214-63.786 28.74-64 63.98v64.020h192v-128h-128zM512 170.667v128h192v-128h-192zM960 234.667c-0.214-35.26-28.74-63.786-63.98-64h-128.020v128h192v-64zM960 362.667h-448v384h448v-384zM832 458.667c0.002 0 0.005 0 0.007 0 17.673 0 32 14.327 32 32 0 14.055-9.062 25.994-21.662 30.293l-74.345 24.767v104.94c0 17.673-14.327 32-32 32s-32-14.327-32-32v-151.060l117.88-39.3c3.018-1.040 6.495-1.64 10.113-1.64 0.003 0 0.005 0 0.008 0z" />
<glyph unicode="&#xe1120;" glyph-name="icon-tabular-realtime" d="M896 938.667h-768c-70.606-0.215-127.785-57.394-128-127.979v-768.021c0.215-70.606 57.394-127.785 127.979-128h768.021c70.606 0.215 127.785 57.394 128 127.979v768.021c-0.215 70.606-57.394 127.785-127.979 128zM448 646.667l25.060-25.32c7.916-7.922 18.856-12.822 30.94-12.822s23.024 4.9 30.94 12.822l75.5 76.3c29.97 30.338 71.571 49.128 117.56 49.128s87.59-18.79 117.544-49.112l50.456-50.997v-152.2c-24.111 8.83-44.678 22.255-61.542 39.342l-75.518 76.318c-7.916 7.922-18.856 12.822-30.94 12.822s-23.024-4.9-30.94-12.822l-75.5-76.3c-29.971-30.343-71.575-49.137-117.568-49.137-20.084 0-39.331 3.584-57.137 10.146l1.145 151.831zM320-21.333h-192c-35.26 0.214-63.786 28.74-64 63.98v128.020h256v-192zM320 234.667h-256v192h256v-192zM320 490.667h-256v192h256v-192zM640-21.333h-256v192h256v-192zM448 302.047v174.5c1.88-1.74 3.74-3.5 5.56-5.34l75.5-76.3c7.916-7.922 18.856-12.822 30.94-12.822s23.024 4.9 30.94 12.822l75.5 76.3c29.966 30.333 71.56 49.119 117.542 49.119 43.28 0 82.673-16.644 112.128-43.879l-0.11-174.399c-1.88 1.74-3.74 3.5-5.56 5.34l-75.5 76.3c-7.916 7.922-18.856 12.822-30.94 12.822s-23.024-4.9-30.94-12.822l-75.5-76.3c-29.966-30.333-71.56-49.119-117.542-49.119-43.28 0-82.673 16.644-112.128 43.879zM960 42.667c-0.214-35.26-28.74-63.786-63.98-64h-192.020v192h256v-128z" />
<glyph unicode="&#xe1121;" glyph-name="icon-tabular-scrolling" d="M64 938.667c-35.2 0-64-28.8-64-64v-192h448v256h-384zM1024 682.667v192c0 35.2-28.8 64-64 64h-384v-256h448zM0 554.667v-192c0-35.2 28.8-64 64-64h384v256h-448zM960 298.667c35.2 0 64 28.8 64 64v192h-448v-256h384zM512-85.333l-256 256h512z" />
<glyph unicode="&#xe1122;" glyph-name="icon-telemetry" d="M718.6 362.667h-127.2c25-93.4 48.4-144.4 63.6-168.6 15.2 24.2 38.6 75.2 63.6 168.6zM794.2 185.867c-15.4-35.8-31.2-63.2-48.2-84-18.4-22.4-49-49.2-91-49.2s-72.6 26.8-91 49.2c-17 20.6-32.6 48.2-48.2 84-23.6 54.8-42.8 120.4-56.6 176.8h-457.2c31.4-252.6 247-448 508-448s476.6 195.4 508 448h-167.2c-14-56.4-33-122-56.6-176.8zM301.4 490.667h127.2c-25 93.4-48.4 144.4-63.6 168.6-15.2-24.2-38.6-75.2-63.6-168.6zM274 751.467c18.4 22.4 49 49.2 91 49.2s72.6-26.8 91-49.2c17-20.6 32.6-48.2 48.2-84 23.6-54.8 42.8-120.4 56.6-176.8h457.2c-31.4 252.6-246.8 448-508 448s-476.6-195.4-508-448h167.2c14 56.4 33 122 56.6 176.8 15.6 35.8 31.4 63.2 48.2 84z" />
<glyph unicode="&#xe1123;" glyph-name="icon-telemetry-panel" d="M169.2 490.667c14 56.4 33 122 56.6 176.8 15.4 35.8 31.2 63.2 48.2 84 18.4 22.4 49 49.2 91 49.2s72.6-26.8 91-49.2c17-20.6 32.6-48.2 48.2-84 23.6-54.8 42.8-120.4 56.6-176.8h461.2v256c0 105.6-86.4 192-192 192h-640c-105.6 0-192-86.4-192-192v-256h171.2zM718.6 362.667h-127.2c25-93.4 48.4-144.4 63.6-168.6 15.2 24.2 38.6 75.2 63.6 168.6zM301.4 490.667h127.2c-25 93.4-48.4 144.4-63.6 168.6-15.2-24.2-38.6-75.2-63.6-168.6zM850.8 362.667c-14-56.4-33-122-56.6-176.8-15.4-35.8-31.2-63.2-48.2-84-18.4-22.4-49-49.2-91-49.2s-72.6 26.8-91 49.2c-17 20.6-32.6 48.2-48.2 84-23.6 54.8-42.8 120.4-56.6 176.8h-461.2v-256c0-105.6 86.4-192 192-192h640c105.6 0 192 86.4 192 192v256h-171.2z" />
<glyph unicode="&#xe1124;" glyph-name="icon-timeline" d="M256 682.667h384v-128h-384v128zM384 490.667h384v-128h-384v128zM320 298.667h384v-128h-384v128zM832 938.667h-128v-192h127.6c0.2 0 0.2-0.2 0.4-0.4v-639.4c0-0.2-0.2-0.2-0.4-0.4h-127.6v-192h128c105.6 0 192 86.4 192 192v640.2c0 105.6-86.4 192-192 192zM192 107.067v639.2c0 0.2 0.2 0.2 0.4 0.4h127.6v192h-128c-105.6 0-192-86.4-192-192v-640c0-105.6 86.4-192 192-192h128v192h-127.6c-0.2 0-0.4 0.2-0.4 0.4z" />
<glyph unicode="&#xe1125;" glyph-name="icon-timer" d="M638 876.667c0 35.4-28.6 64-64 64h-128c-35.4 0-64-28.6-64-64s28.6-64 64-64h128c35.4 0 64 28.6 64 64zM510 812.667c-247.4 0-448-200.6-448-448s200.6-448 448-448 448 200.6 448 448-200.6 448-448 448zM510 364.667h-336c0 185.2 150.8 336 336 336v-336z" />
<glyph unicode="&#xe1126;" glyph-name="icon-topic" d="M454.36 462.027l86.3 86.3c9.088 8.965 21.577 14.502 35.36 14.502s26.272-5.537 35.366-14.507l86.294-86.294c19.328-19.358 42.832-34.541 69.047-44.082l1.313 171.722-57.64 57.64c-34.407 34.33-81.9 55.558-134.35 55.558s-99.943-21.228-134.354-55.562l-86.296-86.297c-9.088-8.965-21.577-14.502-35.36-14.502s-26.272 5.537-35.366 14.507l-28.674 28.654v-172.14c19.045-7.022 41.040-11.084 63.984-11.084 52.463 0 99.966 21.239 134.379 55.587zM505.64 391.307l-86.3-86.3c-9.088-8.965-21.577-14.502-35.36-14.502s-26.272 5.537-35.366 14.507l-86.294 86.294c-2 2-4.2 4-6.36 6v-197.36c33.664-30.72 78.65-49.537 128.031-49.537 52.44 0 99.923 21.22 134.333 55.541l86.296 86.296c9.088 8.965 21.577 14.502 35.36 14.502s26.272-5.537 35.366-14.507l86.294-86.294c2-2 4.2-4 6.36-6v197.36c-33.664 30.72-78.65 49.537-128.031 49.537-52.44 0-99.923-21.22-134.333-55.541zM832 938.667h-128v-192h127.66l0.34-0.34v-639.32l-0.34-0.34h-127.66v-192h128c105.6 0 192 86.4 192 192v640c0 105.6-86.4 192-192 192zM320 106.667h-127.66l-0.34 0.34v639.32l0.34 0.34h127.66v192h-128c-105.6 0-192-86.4-192-192v-640c0-105.6 86.4-192 192-192h128v192z" />
</font>
</defs>
</svg>
