<?xml version="1.0" standalone="no"?>
<!DOCTYPE svg PUBLIC "-//W3C//DTD SVG 1.1//EN" "http://www.w3.org/Graphics/SVG/1.1/DTD/svg11.dtd" >
<svg xmlns="http://www.w3.org/2000/svg">
<metadata>Generated by IcoMoon</metadata>
<defs>
<font id="openmct-symbols-16px" horiz-adv-x="1024">
<font-face units-per-em="1024" ascent="960" descent="-64" />
<missing-glyph horiz-adv-x="1024" />
<glyph unicode="&#x20;" horiz-adv-x="512" d="" />
<glyph unicode="&#xe900;" glyph-name="icon-alert-rect" d="M896 960h-768c-70.6-0.2-127.8-57.4-128-128v-768c0.2-70.6 57.4-127.8 128-128h768c70.6 0.2 127.8 57.4 128 128v768c-0.2 70.6-57.4 127.8-128 128zM576 64h-128v128h128v-128zM597.8 448l-37.8-192h-96l-37.8 192v384h171.8v-384z" />
<glyph unicode="&#xe901;" glyph-name="icon-alert-triangle" d="M998.2 111.2l-422.6 739.6c-35 61.2-92 61.2-127 0l-422.8-739.6c-35-61.2-6-111.2 64.4-111.2h843.4c70.6 0 99.6 50 64.6 111.2zM576 64h-128v128h128v-128zM597.8 448l-37.8-192h-96l-37.8 192v256h171.8v-256z" />
<glyph unicode="&#xe902;" glyph-name="icon-arrow-down" d="M512 192l512 512h-1024z" />
<glyph unicode="&#xe903;" glyph-name="icon-arrow-left" d="M256 448l512-512v1024z" />
<glyph unicode="&#xe904;" glyph-name="icon-arrow-right" d="M768 448l-512 512v-1024z" />
<glyph unicode="&#xe905;" glyph-name="icon-arrow-double-up" d="M510 450l512-512h-1024zM510 962l512-512h-1024z" />
<glyph unicode="&#xe906;" glyph-name="icon-arrow-tall-up" d="M512 960l512-1024h-1024z" />
<glyph unicode="&#xe907;" glyph-name="icon-arrow-tall-down" d="M512-64l-512 1024h1024z" />
<glyph unicode="&#xe908;" glyph-name="icon-arrow-double-down" d="M510 450l-512 512h1024zM510-62l-512 512h1024z" />
<glyph unicode="&#xe909;" glyph-name="icon-arrow-up" d="M512 704l-512-512h1024z" />
<glyph unicode="&#xe910;" glyph-name="icon-asterisk" d="M1004.166 619.542l-97.522 168.916-330.534-229.414 33.414 400.956h-195.048l33.414-400.956-330.534 229.414-97.522-168.916 363.944-171.542-363.944-171.542 97.522-168.916 330.534 229.414-33.414-400.956h195.048l-33.414 400.956 330.534-229.414 97.522 168.916-363.944 171.542z" />
<glyph unicode="&#xe911;" glyph-name="icon-bell" d="M512-64c106 0 192 86 192 192h-384c0-106 86-192 192-192zM896 512v64c0 212-172 384-384 384s-384-172-384-384v-64c0-70.6-57.4-128-128-128v-128h1024v128c-70.6 0-128 57.4-128 128z" />
<glyph unicode="&#xe912;" glyph-name="icon-box" d="M0 960h1024v-1024h-1024v1024z" />
<glyph unicode="&#xe913;" glyph-name="icon-box-with-arrow-cursor" d="M894 962h-768c-70.4 0-128-57.6-128-128v-768c0-70.4 57.6-128 128-128h400c-2.2 3.8-4 7.6-5.8 11.4l-255.2 576.8c-21.4 48.4-10.8 105 26.6 142.4 24.4 24.4 57.2 37.4 90.4 37.4 17.4 0 35.2-3.6 51.8-11l576.6-255.4c4-1.8 7.8-3.8 11.4-5.8v400.2c0.2 70.4-57.4 128-127.8 128zM958.6 322.6l-576.6 255.4 255.4-576.6 64.6 128.6 192-192 128 128-192 192z" />
<glyph unicode="&#xe914;" glyph-name="icon-check" d="M1024 960l-640-640-384 384v-384l384-384 640 640z" />
<glyph unicode="&#xe915;" glyph-name="icon-connectivity" d="M704 384c0-70.4-57.6-128-128-128h-128c-70.4 0-128 57.6-128 128v128c0 70.4 57.6 128 128 128h128c70.4 0 128-57.6 128-128v-128zM1024 448l-192 320v-640zM0 448l192 320v-640z" />
<glyph unicode="&#xe916;" glyph-name="icon-database-in-brackets" d="M768 608c0-53.019-114.615-96-256-96s-256 42.981-256 96c0 53.019 114.615 96 256 96s256-42.981 256-96zM768 288v256c0-53-114.6-96-256-96s-256 43-256 96v-256c0-53 114.6-96 256-96s256 43 256 96zM832 960h-128v-192h127.6c0.2 0 0.2-0.2 0.4-0.4v-639.4c0-0.2-0.2-0.2-0.4-0.4h-127.6v-192h128c105.6 0 192 86.4 192 192v640.2c0 105.6-86.4 192-192 192zM192 128.4v639.4c0 0.2 0.2 0.2 0.4 0.4h127.6v191.8h-128c-105.6 0-192-86.4-192-192v-640c0-105.6 86.4-192 192-192h128v192h-127.6c-0.2 0-0.4 0.2-0.4 0.4z" />
<glyph unicode="&#xe917;" glyph-name="icon-eye-open" d="M512 843.6c-245.8 0-452.2-168-510.8-395.6 58.6-227.4 265-395.6 510.8-395.6s452.2 168 510.8 395.6c-58.6 227.4-265 395.6-510.8 395.6zM829.2 371.6c-22.6-34.4-50.6-64.8-83-90.4-32.8-25.8-69-45.6-108-59.4-40.4-14.2-82.8-21.4-126-21.4s-85.8 7.2-126 21.4c-39 13.8-75.4 33.8-108 59.4-32.4 25.6-60.4 55.8-83 90.4-15.8 24-28.8 49.6-38.6 76.4 10 26.8 23 52.4 38.6 76.4 22.6 34.4 50.6 64.8 83 90.4 32.8 25.8 69 45.6 108 59.4 40.4 14.2 82.8 21.4 126 21.4s85.8-7.2 126-21.4c39-13.8 75.4-33.8 108-59.4 32.4-25.6 60.4-55.8 83-90.4 15.8-24 28.8-49.6 38.6-76.4-9.8-26.8-22.8-52.4-38.6-76.4zM704 448c0-106.039-85.961-192-192-192s-192 85.961-192 192c0 106.039 85.961 192 192 192s192-85.961 192-192z" />
<glyph unicode="&#xe918;" glyph-name="icon-gear" d="M1024 384v128l-140.976 35.244c-8.784 32.922-21.818 64.106-38.504 92.918l74.774 124.622-90.51 90.51-124.622-74.774c-28.812 16.686-59.996 29.72-92.918 38.504l-35.244 140.976h-128l-35.244-140.976c-32.922-8.784-64.106-21.818-92.918-38.504l-124.622 74.774-90.51-90.51 74.774-124.622c-16.686-28.812-29.72-59.996-38.504-92.918l-140.976-35.244v-128l140.976-35.244c8.784-32.922 21.818-64.106 38.504-92.918l-74.774-124.622 90.51-90.51 124.622 74.774c28.812-16.686 59.996-29.72 92.918-38.504l35.244-140.976h128l35.244 140.976c32.922 8.784 64.106 21.818 92.918 38.504l124.622-74.774 90.51 90.51-74.774 124.622c16.686 28.812 29.72 59.996 38.504 92.918l140.976 35.244zM704 448c0-106.038-85.962-192-192-192s-192 85.962-192 192 85.962 192 192 192 192-85.962 192-192z" />
<glyph unicode="&#xe919;" glyph-name="icon-hourglass" d="M1024 960h-1024c0-282.8 229.2-512 512-512s512 229.2 512 512zM512 576c-102.6 0-199 40-271.6 112.4-41.2 41.2-72 90.2-90.8 143.6h724.6c-18.8-53.4-49.6-102.4-90.8-143.6-72.4-72.4-168.8-112.4-271.4-112.4zM512 448c-282.8 0-512-229.2-512-512h1024c0 282.8-229.2 512-512 512z" />
<glyph unicode="&#xe920;" glyph-name="icon-info" d="M512 960c-282.8 0-512-229.2-512-512s229.2-512 512-512 512 229.2 512 512-229.2 512-512 512zM512 832c70.6 0 128-57.4 128-128s-57.4-128-128-128c-70.6 0-128 57.4-128 128s57.4 128 128 128zM704 128h-384v128h64v256h256v-256h64v-128z" />
<glyph unicode="&#xe921;" glyph-name="icon-link" d="M1024 448l-512 512v-307.2l-512-204.8v-256h512v-256z" />
<glyph unicode="&#xe922;" glyph-name="icon-lock" d="M832 576h-32v96c0 158.8-129.2 288-288 288s-288-129.2-288-288v-96h-32c-70.4 0-128-57.6-128-128v-384c0-70.4 57.6-128 128-128h640c70.4 0 128 57.6 128 128v384c0 70.4-57.6 128-128 128zM416 672c0 53 43 96 96 96s96-43 96-96v-96h-192v96z" />
<glyph unicode="&#xe923;" glyph-name="icon-minus" d="M960 320c35.2 0 64 28.8 64 64v128c0 35.2-28.8 64-64 64h-896c-35.2 0-64-28.8-64-64v-128c0-35.2 28.8-64 64-64h896z" />
<glyph unicode="&#xe924;" glyph-name="icon-people" d="M704 640h64c70.4 0 128 57.6 128 128v64c0 70.4-57.6 128-128 128h-64c-70.4 0-128-57.6-128-128v-64c0-70.4 57.6-128 128-128zM256 640h64c70.4 0 128 57.6 128 128v64c0 70.4-57.6 128-128 128h-64c-70.4 0-128-57.6-128-128v-64c0-70.4 57.6-128 128-128zM832 576h-192c-34.908 0-67.716-9.448-96-25.904 57.278-33.324 96-95.404 96-166.096v-448h384v448c0 105.6-86.4 192-192 192zM384 576h-192c-105.6 0-192-86.4-192-192v-448h576v448c0 105.6-86.4 192-192 192z" />
<glyph unicode="&#xe925;" glyph-name="icon-person" d="M768 704c0-105.6-86.4-192-192-192h-128c-105.6 0-192 86.4-192 192v64c0 105.6 86.4 192 192 192h128c105.6 0 192-86.4 192-192v-64zM64-64v192c0 140.8 115.2 256 256 256h384c140.8 0 256-115.2 256-256v-192z" />
<glyph unicode="&#xe926;" glyph-name="icon-plus" d="M960 576h-330v320c0 35.2-28.8 64-64 64h-108c-35.2 0-64-28.8-64-64v-320h-330c-35.2 0-64-28.8-64-64v-128c0-35.2 28.8-64 64-64h330v-320c0-35.2 28.8-64 64-64h108c35.2 0 64 28.8 64 64v320h330c35.2 0 64 28.8 64 64v128c0 35.2-28.8 64-64 64z" />
<glyph unicode="&#xe927;" glyph-name="icon-trash" d="M832 832h-192.36v64c0 35.2-28.8 64-64 64h-128c-35.2 0-64-28.8-64-64v-64h-191.64c-105.6 0-192-72-192-160s0-160 0-160h64v-384c0-105.6 86.4-192 192-192h512c105.6 0 192 86.4 192 192v384h64c0 0 0 72 0 160s-86.4 160-192 160zM320 128h-128v384h128v-384zM576 128h-128v384h128v-384zM832 128h-128v384h128v-384z" />
<glyph unicode="&#xe928;" glyph-name="icon-x" d="M384 448l-365.332-365.332c-24.89-24.89-24.89-65.62 0-90.51l37.49-37.49c24.89-24.89 65.62-24.89 90.51 0 0 0 365.332 365.332 365.332 365.332l365.332-365.332c24.89-24.89 65.62-24.89 90.51 0l37.49 37.49c24.89 24.89 24.89 65.62 0 90.51l-365.332 365.332c0 0 365.332 365.332 365.332 365.332 24.89 24.89 24.89 65.62 0 90.51l-37.49 37.49c-24.89 24.89-65.62 24.89-90.51 0 0 0-365.332-365.332-365.332-365.332l-365.332 365.332c-24.89 24.89-65.62 24.89-90.51 0l-37.49-37.49c-24.89-24.89-24.89-65.62 0-90.51 0 0 365.332-365.332 365.332-365.332z" />
<glyph unicode="&#xe929;" glyph-name="icon-brackets" d="M832 960h-192v-192h191.66l0.34-0.34v-639.32l-0.34-0.34h-191.66v-192h192c105.6 0 192 86.4 192 192v640c0 105.6-86.4 192-192 192zM384 128h-191.66l-0.34 0.34v639.32l0.34 0.34h191.66v192h-192c-105.6 0-192-86.4-192-192v-640c0-105.6 86.4-192 192-192h192v192z" />
<glyph unicode="&#xe930;" glyph-name="icon-crosshair" d="M574 962h-128v-320h128v320zM1022 514h-320v-128h320v128zM574 258h-128v-320h128v320zM318 514h-320v-128h320v128z" />
<glyph unicode="&#xe931;" glyph-name="icon-grippy-v2" horiz-adv-x="586" d="M146.4 777.2c0-40.427-32.773-73.2-73.2-73.2s-73.2 32.773-73.2 73.2c0 40.427 32.773 73.2 73.2 73.2s73.2-32.773 73.2-73.2zM146.4 557.8c0-40.427-32.773-73.2-73.2-73.2s-73.2 32.773-73.2 73.2c0 40.427 32.773 73.2 73.2 73.2s73.2-32.773 73.2-73.2zM146.4 338.2c0-40.427-32.773-73.2-73.2-73.2s-73.2 32.773-73.2 73.2c0 40.427 32.773 73.2 73.2 73.2s73.2-32.773 73.2-73.2zM146.4 118.8c0-40.427-32.773-73.2-73.2-73.2s-73.2 32.773-73.2 73.2c0 40.427 32.773 73.2 73.2 73.2s73.2-32.773 73.2-73.2zM365.8 886.8c0-40.427-32.773-73.2-73.2-73.2s-73.2 32.773-73.2 73.2c0 40.427 32.773 73.2 73.2 73.2s73.2-32.773 73.2-73.2zM365.8 667.4c0-40.427-32.773-73.2-73.2-73.2s-73.2 32.773-73.2 73.2c0 40.427 32.773 73.2 73.2 73.2s73.2-32.773 73.2-73.2zM365.8 448c0-40.427-32.773-73.2-73.2-73.2s-73.2 32.773-73.2 73.2c0 40.427 32.773 73.2 73.2 73.2s73.2-32.773 73.2-73.2zM365.8 228.6c0-40.427-32.773-73.2-73.2-73.2s-73.2 32.773-73.2 73.2c0 40.427 32.773 73.2 73.2 73.2s73.2-32.773 73.2-73.2zM365.8 9.2c0-40.427-32.773-73.2-73.2-73.2s-73.2 32.773-73.2 73.2c0 40.427 32.773 73.2 73.2 73.2s73.2-32.773 73.2-73.2zM585.2 777.2c0-40.427-32.773-73.2-73.2-73.2s-73.2 32.773-73.2 73.2c0 40.427 32.773 73.2 73.2 73.2s73.2-32.773 73.2-73.2zM585.2 557.8c0-40.427-32.773-73.2-73.2-73.2s-73.2 32.773-73.2 73.2c0 40.427 32.773 73.2 73.2 73.2s73.2-32.773 73.2-73.2zM585.2 338.2c0-40.427-32.773-73.2-73.2-73.2s-73.2 32.773-73.2 73.2c0 40.427 32.773 73.2 73.2 73.2s73.2-32.773 73.2-73.2zM585.2 118.8c0-40.427-32.773-73.2-73.2-73.2s-73.2 32.773-73.2 73.2c0 40.427 32.773 73.2 73.2 73.2s73.2-32.773 73.2-73.2z" />
<glyph unicode="&#xe932;" glyph-name="icon-arrow-right-equilateral" d="M962 448l-896-512v1024z" />
<glyph unicode="&#xe1000;" glyph-name="icon-arrows-out" d="M0 448l256-256v512zM512 960l-256-256h512zM512-64l256 256h-512zM768 704v-512l256 256z" />
<glyph unicode="&#xe1001;" glyph-name="icon-arrows-right-left" d="M1024 448l-448-512v1024zM448 960l-448-512 448-512z" />
<glyph unicode="&#xe1002;" glyph-name="icon-arrows-up-down" d="M512 960l512-448h-1024zM0 384l512-448 512 448z" />
<glyph unicode="&#xe1004;" glyph-name="icon-bullet" d="M832 208c0-44-36-80-80-80h-480c-44 0-80 36-80 80v480c0 44 36 80 80 80h480c44 0 80-36 80-80v-480z" />
<glyph unicode="&#xe1005;" glyph-name="icon-calendar" d="M896 960h-768c-70.4 0-128-57.6-128-128v-768c0-70.4 57.6-128 128-128h768c70.4 0 128 57.6 128 128v768c0 70.4-57.6 128-128 128zM640 512h-256v192h256v-192zM384 448h256v-192h-256v192zM320 256h-256v192h256v-192zM320 704v-192h-256v192h256zM128 0c-17 0-33 6.6-45.2 18.8s-18.8 28.2-18.8 45.2v128h256v-192h-192zM384 0v192h256v-192h-256zM960 64c0-17-6.6-33-18.8-45.2s-28.2-18.8-45.2-18.8h-192v192h256v-128zM960 256h-256v192h256v-192zM960 512h-256v192h256v-192z" />
<glyph unicode="&#xe1006;" glyph-name="icon-chain-links" d="M958.4 894.4c-43.8 43.8-101 65.6-158.4 65.6s-114.6-21.8-158.4-65.6l-128-128c-74-74-85.4-187-34-273l-12.8-12.8c-35.4 20.8-75 31.4-114.8 31.4-57.4 0-114.6-21.8-158.4-65.6l-128-128c-87.4-87.4-87.4-229.4 0-316.8 43.8-43.8 101-65.6 158.4-65.6s114.6 21.8 158.4 65.6l128 128c74 74 85.4 187 34 273l12.8 12.8c35.2-21 75-31.6 114.6-31.6 57.4 0 114.6 21.8 158.4 65.6l128 128c87.6 87.6 87.6 229.6 0.2 317zM419.8 220.2l-128-128c-18-18.2-42.2-28.2-67.8-28.2s-49.8 10-67.8 28.2c-37.4 37.4-37.4 98.4 0 135.8l128 128c18.2 18.2 42.2 28.2 67.8 28.2 5.6 0 11.2-0.6 16.8-1.4l-55.6-55.6c-10.4-10.4-16.2-24.2-16.2-38.8s5.8-28.6 16.2-38.8c10.4-10.4 24.2-16.2 38.8-16.2s28.6 5.8 38.8 16.2l55.6 55.6c5.4-30.4-3.6-62.2-26.6-85zM867.8 668.2l-128-128c-18-18.2-42.2-28.2-67.8-28.2-5.6 0-11.2 0.6-16.8 1.4l55.6 55.6c10.4 10.4 16.2 24.2 16.2 38.8s-5.8 28.6-16.2 38.8c-10.4 10.4-24.2 16.2-38.8 16.2s-28.6-5.8-38.8-16.2l-55.6-55.6c-5.2 29.8 3.6 61.6 26.6 84.6l128 128c18 18.4 42.2 28.4 67.8 28.4s49.8-10 67.8-28.2c37.6-37.4 37.6-98.2 0-135.6z" />
<glyph unicode="&#xe1007;" glyph-name="icon-pane-collapse-left" horiz-adv-x="832" d="M0 960h192v-1024h-192v1024zM832 704h-256v256l-320-416 320-416v256h256v320z" />
<glyph unicode="&#xe1008;" glyph-name="icon-pane-collapse-right" horiz-adv-x="832" d="M640 960h192v-1024h-192v1024zM0 704h256v256l320-416-320-416v256h-256v320z" />
<glyph unicode="&#xe1009;" glyph-name="icon-download" d="M832 384v-255.66l-0.34-0.34-639.66 0.34v255.66h-192v-256c0-105.6 86.4-192 192-192h640c105.6 0 192 86.4 192 192v256h-192zM512 320l448 448h-256v192h-384v-192h-256l448-448z" />
<glyph unicode="&#xe1010;" glyph-name="icon-duplicate" d="M640 704v128c0 70.4-57.6 128-128 128h-384c-70.4 0-128-57.6-128-128v-384c0-70.4 57.6-128 128-128h128v139.6c0 134.8 109.6 244.4 244.4 244.4h139.6zM896 576h-384c-70.4 0-128-57.6-128-128v-384c0-70.4 57.6-128 128-128h384c70.4 0 128 57.6 128 128v384c0 70.4-57.6 128-128 128z" />
<glyph unicode="&#xe1011;" glyph-name="icon-folder-new" d="M896 768h-320c-16.4 16.4-96.8 96.8-109.2 109.2l-37.4 37.4c-25 25-74.2 45.4-109.4 45.4h-256c-35.2 0-64-28.8-64-64v-384c0 70.4 57.6 128 128 128h768c70.4 0 128-57.6 128-128v128c0 70.4-57.6 128-128 128zM896 512h-768c-70.4 0-128-57.6-128-128v-320c0-70.4 57.6-128 128-128h768c70.4 0 128 57.6 128 128v320c0 70.4-57.6 128-128 128zM704 160h-128v-128h-128v128h-128v128h128v128h128v-128h128v-128z" />
<glyph unicode="&#xe1012;" glyph-name="icon-fullscreen-expand" d="M192.344 128c-0.118 0.1-0.244 0.224-0.344 0.344v191.656h-192v-192c0-105.6 86.4-192 192-192h192v192h-191.656zM192 767.656c0.1 0.118 0.224 0.244 0.344 0.344h191.656v192h-192c-105.6 0-192-86.4-192-192v-192h192v191.656zM832 960h-192v-192h191.656c0.118-0.1 0.244-0.226 0.344-0.344v-191.656h192v192c0 105.6-86.4 192-192 192zM832 128.344c-0.1-0.118-0.224-0.244-0.344-0.344h-191.656v-192h192c105.6 0 192 86.4 192 192v192h-192v-191.656z" />
<glyph unicode="&#xe1013;" glyph-name="icon-fullscreen-collapse" d="M191.656 128c0.118-0.1 0.244-0.224 0.344-0.344v-191.656h192v192c0 105.6-86.4 192-192 192h-192v-192h191.656zM192 768.344c-0.1-0.118-0.224-0.244-0.344-0.344h-191.656v-192h192c105.6 0 192 86.4 192 192v192h-192v-191.656zM832 576h192v192h-191.656c-0.118 0.1-0.244 0.226-0.344 0.344v191.656h-192v-192c0-105.6 86.4-192 192-192zM832 127.656c0.1 0.118 0.224 0.244 0.344 0.344h191.656v192h-192c-105.6 0-192-86.4-192-192v-192h192v191.656z" />
<glyph unicode="&#xe1014;" glyph-name="icon-layers" d="M1024 576l-512 384-512-384 512-384zM512 64l-426.666 320-85.334-64 512-384 512 384-85.334 64z" />
<glyph unicode="&#xe1015;" glyph-name="icon-line-horz" d="M64 384c-35.346 0-64 28.654-64 64s28.654 64 64 64h896c35.346 0 64-28.654 64-64s-28.654-64-64-64h-896z" />
<glyph unicode="&#xe1016;" glyph-name="icon-magnify" d="M1024 64l-256.8 256.8c42.4 66.6 65 144 64.8 223.2 0 229.8-186.2 416-416 416s-416-186.2-416-416 186.2-416 416-416c79-0.2 156.4 22.4 223.2 64.8l256.8-256.8 128 128zM212.4 340.4c-112.4 112.4-112.4 294.8 0 407.2s294.8 112.4 407.2 0 112.4-294.8 0-407.2c-54-54-127.2-84.4-203.6-84.4-76.4-0.2-149.8 30.2-203.6 84.4z" />
<glyph unicode="&#xe1017;" glyph-name="icon-magnify-in" d="M1024 64l-256.86 256.86c40.681 62.963 64.861 139.898 64.861 222.481 0 0.232 0 0.464-0.001 0.696v-0.036c0 229.76-186.24 416-416 416s-416-186.24-416-416 186.24-416 416-416c0.196 0 0.427-0.001 0.659-0.001 82.583 0 159.518 24.18 224.112 65.846l-1.631-0.985 256.86-256.86zM212.36 340.36c-52.114 52.117-84.346 124.114-84.346 203.64 0 159.058 128.942 288 288 288s288-128.942 288-288c0-159.058-128.942-288-288-288-0.005 0-0.010 0-0.014 0h0.001c-0.242-0.001-0.529-0.001-0.815-0.001-79.271 0-151.010 32.251-202.811 84.348l-0.013 0.014zM224 608h384v-128h-384v128zM352 736h128v-384h-128v384z" />
<glyph unicode="&#xe1018;" glyph-name="icon-magnify-out" d="M767.2 320.8c42.4 66.6 65 144 64.8 223.2 0 229.8-186.2 416-416 416s-416-186.2-416-416 186.2-416 416-416c79-0.2 156.4 22.4 223.2 64.8l256.8-256.8 128 128-256.8 256.8zM619.6 340.4c-54-54-127.2-84.4-203.6-84.4-76.4-0.2-149.8 30.2-203.6 84.4-112.4 112.4-112.4 294.8 0 407.2s294.8 112.4 407.2 0c112.4-112.4 112.4-294.8 0-407.2zM224 608h384v-128h-384v128z" />
<glyph unicode="&#xe1019;" glyph-name="icon-menu" d="M0 832h1024v-128h-1024v128zM0 512h1024v-128h-1024v128zM0 192h1024v-128h-1024v128z" />
<glyph unicode="&#xe1020;" glyph-name="icon-move" d="M293.4 448l218.6 218.6 256-256v421.4c0 70.4-57.6 128-128 128h-512c-70.4 0-128-57.6-128-128v-512c0-70.4 57.6-128 128-128h421.4l-256 256zM1024 512h-128v-320l-384 384-128-128 384-384h-320v-128h576z" />
<glyph unicode="&#xe1021;" glyph-name="icon-new-window" d="M448 960v-128h320l-384-384 128-128 384 384v-320h128v576zM576 285.726v-157.382c-0.1-0.118-0.226-0.244-0.344-0.344h-383.312c-0.118 0.1-0.244 0.226-0.344 0.344v383.312c0.1 0.118 0.226 0.244 0.344 0.344h157.382l192 192h-349.726c-105.6 0-192-86.4-192-192v-384c0-105.6 86.4-192 192-192h384c105.6 0 192 86.4 192 192v349.726l-192-192z" />
<glyph unicode="&#xe1022;" glyph-name="icon-paint-bucket" d="M544 736v-224c0-88.4-71.6-160-160-160s-160 71.6-160 160v97.2l-197.4-196.4c-50-50-12.4-215.2 112.4-340s290-162.4 340-112.4l417 423.6-352 352zM896-64c70.6 0 128 57.4 128 128 0 108.6-128 192-128 192s-128-83.4-128-192c0-70.6 57.4-128 128-128zM384 448c-35.4 0-64 28.6-64 64v384c0 35.4 28.6 64 64 64s64-28.6 64-64v-384c0-35.4-28.6-64-64-64z" />
<glyph unicode="&#xe1023;" glyph-name="icon-pause" d="M126 962h256v-1024h-256v1024zM638 962h256v-1024h-256v1024z" />
<glyph unicode="&#xe1024;" glyph-name="icon-pencil" d="M922.344 858.32c-38.612 38.596-81.306 69.232-120.304 86.324-68.848 30.25-104.77 9.078-120.194-6.344l-516.228-516.216-3.136-9.152-162.482-476.932 485.998 165.612 6.73 6.806 509.502 509.506c9.882 9.866 21.768 27.77 21.768 56.578 0.002 50.71-38.996 121.148-101.654 183.818zM237.982 104.34l-69.73 69.728 69.25 203.228 18.498 6.704h64v-128h128v-64l-6.846-18.506-203.172-69.154z" />
<glyph unicode="&#xe1025;" glyph-name="icon-play" d="M1024 448l-1024-512v1024z" />
<glyph unicode="&#xe1026;" glyph-name="icon-plot-resource" d="M255.884 256c0.040 0.034 0.082 0.074 0.116 0.116v127.884c0 70.58 57.42 128 128 128h255.884c0.040 0.034 0.082 0.074 0.116 0.116v127.884c0 70.58 57.42 128 128 128h143.658c-93.832 117.038-237.98 192-399.658 192-282.77 0-512-229.23-512-512 0-67.904 13.25-132.704 37.256-192h218.628zM768.116 640c-0.040-0.034-0.082-0.074-0.116-0.116v-127.884c0-70.58-57.42-128-128-128h-255.884c-0.040-0.034-0.082-0.074-0.116-0.116v-127.884c0-70.58-57.42-128-128-128h-143.658c93.832-117.038 237.98-192 399.658-192 282.77 0 512 229.23 512 512 0 67.904-13.25 132.704-37.256 192h-218.628z" />
<glyph unicode="&#xe1027;" glyph-name="icon-pointer-left" horiz-adv-x="512" d="M510-64l-256 512 256 512h-256l-256-512 256-512z" />
<glyph unicode="&#xe1028;" glyph-name="icon-pointer-right" horiz-adv-x="512" d="M-2 960l256-512-256-512h256l256 512-256 512z" />
<glyph unicode="&#xe1029;" glyph-name="icon-refresh" d="M960 528v432l-164.8-164.8c-79.8 65.2-178.8 100.8-283.2 100.8-119.6 0-232.2-46.6-316.8-131.2s-131.2-197.2-131.2-316.8 46.6-232.2 131.2-316.8c84.6-84.6 197.2-131.2 316.8-131.2s232.2 46.6 316.8 131.2c69.4 69.4 113.2 157.4 126.6 252.8h-130c-29.8-145.8-159-256-313.6-256-176.4 0-320 143.6-320 320s143.8 320 320.2 320c72 0 138.4-23.8 192-64l-176-176h432z" />
<glyph unicode="&#xe1030;" glyph-name="icon-save" d="M192.2 384c-0.2 0-0.2 0 0 0l-0.2-448h640v447.8c0 0 0 0-0.2 0.2h-639.6zM978.8 749.2l-165.4 165.4c-25 25-74.2 45.4-109.4 45.4h-576c-70.4 0-128-57.6-128-128v-768c0-70.4 57.6-128 128-128v448c0 35.2 28.8 64 64 64h640c35.2 0 64-28.8 64-64v-448c70.4 0 128 57.6 128 128v576c0 35.2-20.4 84.4-45.2 109.2zM704 704c0-35.2-28.8-64-64-64h-448c-35.2 0-64 28.8-64 64v192h320v-192h128v192h128v-192z" />
<glyph unicode="&#xe1031;" glyph-name="icon-sine" d="M1022.294 448c-1.746 7.196-3.476 14.452-5.186 21.786-20.036 85.992-53.302 208.976-98 306.538-22.42 48.938-45.298 86.556-69.946 115.006-48.454 55.93-98.176 67.67-131.356 67.67s-82.902-11.74-131.356-67.672c-24.648-28.45-47.528-66.068-69.948-115.006-44.696-97.558-77.962-220.544-98-306.538-21.646-92.898-46.444-175.138-71.71-237.836-16.308-40.46-30.222-66.358-40.6-82.604-10.378 16.246-24.292 42.142-40.6 82.604-23.272 57.75-46.144 132.088-66.524 216.052h-197.362c1.746-7.196 3.476-14.452 5.186-21.786 20.036-85.992 53.302-208.976 98-306.538 22.42-48.938 45.298-86.556 69.946-115.006 48.454-55.932 98.176-67.672 131.356-67.672s82.902 11.74 131.356 67.672c24.648 28.45 47.528 66.068 69.948 115.006 44.696 97.558 77.962 220.544 98 306.538 21.646 92.898 46.444 175.138 71.71 237.836 16.308 40.46 30.222 66.358 40.6 82.604 10.378-16.246 24.292-42.142 40.6-82.604 23.274-57.748 46.146-132.086 66.526-216.050h197.36z" />
<glyph unicode="&#xe1032;" glyph-name="icon-T" d="M0 960v-256h128v64h256v-704h-192v-128h640v128h-192v704h256v-64h128v256z" />
<glyph unicode="&#xe1033;" glyph-name="icon-thumbs-strip" d="M448 578c0-35.2-28.8-64-64-64h-320c-35.2 0-64 28.8-64 64v320c0 35.2 28.8 64 64 64h320c35.2 0 64-28.8 64-64v-320zM1024 578c0-35.2-28.8-64-64-64h-320c-35.2 0-64 28.8-64 64v320c0 35.2 28.8 64 64 64h320c35.2 0 64-28.8 64-64v-320zM448 2c0-35.2-28.8-64-64-64h-320c-35.2 0-64 28.8-64 64v320c0 35.2 28.8 64 64 64h320c35.2 0 64-28.8 64-64v-320zM1024 2c0-35.2-28.8-64-64-64h-320c-35.2 0-64 28.8-64 64v320c0 35.2 28.8 64 64 64h320c35.2 0 64-28.8 64-64v-320z" />
<glyph unicode="&#xe1034;" glyph-name="icon-two-parts-both" d="M896 960h-768c-70.4 0-128-57.6-128-128v-768c0-70.4 57.6-128 128-128h768c70.4 0 128 57.6 128 128v768c0 70.4-57.6 128-128 128zM128 832h320v-768h-320v768zM896 64h-320v768h320v-768z" />
<glyph unicode="&#xe1035;" glyph-name="icon-two-parts-one-only" d="M896 960h-768c-70.4 0-128-57.6-128-128v-768c0-70.4 57.6-128 128-128h768c70.4 0 128 57.6 128 128v768c0 70.4-57.6 128-128 128zM896 64h-320v768h320v-768z" />
<glyph unicode="&#xe1036;" glyph-name="icon-resync" d="M795.2 795.2c-79.8 65.2-178.8 100.8-283.2 100.8-119.6 0-232.2-46.6-316.8-131.2-69.4-69.4-113.2-157.4-126.6-252.8h130c29.6 145.8 158.8 256 313.4 256 72 0 138.4-23.8 192-64l-176-176h432v432l-164.8-164.8zM512 128c-72 0-138.4 23.8-192 64l176 176h-432v-432l164.8 164.8c79.8-65.2 178.8-100.8 283.2-100.8 119.6 0 232.2 46.6 316.8 131.2 69.4 69.4 113.2 157.4 126.6 252.8h-130c-29.6-145.8-158.8-256-313.4-256z" />
<glyph unicode="&#xe1037;" glyph-name="icon-reset" d="M460.8 499.2l-187.8 187.8c57.2 42.8 128 68.2 204.8 68.2 188.2 0 341.6-153.2 341.6-341.4s-153.2-341.2-341.4-341.2c-165 0-302.8 117.6-334.6 273h-138.4c14.2-101.8 61-195.6 135-269.6 90.2-90.2 210.4-140 338-140s247.6 49.8 338 140 140 210.4 140 338-49.8 247.6-140 338-210.4 140-338 140c-111.4 0-217-38-302-107.6l-176 175.6v-460.8h460.8z" />
<glyph unicode="&#xe1038;" glyph-name="icon-x-in-circle" d="M512 960c-282.8 0-512-229.2-512-512s229.2-512 512-512 512 229.2 512 512-229.2 512-512 512zM832 256l-128-128-192 192-192-192-128 128 192 192-192 192 128 128 192-192 192 192 128-128-192-192 192-192z" />
<glyph unicode="&#xe1039;" glyph-name="icon-brightness" d="M253.414 641.939l-155.172 116.384c-50.233-66.209-85.127-146.713-97.91-234.39l191.586-30.216c8.145 56.552 29.998 106.879 62.068 149.006zM191.98 402.283l-191.919-27.434c13.115-90.459 48.009-170.963 99.174-238.453l154.18 117.665c-31.476 41.347-53.309 91.675-61.231 146.504zM466.283 768.020l-27.434 191.919c-90.459-13.115-170.963-48.009-238.453-99.174l117.665-154.18c41.347 31.476 91.675 53.309 146.504 61.231zM822.323 861.758c-66.209 50.233-146.713 85.127-234.39 97.91l-30.216-191.586c56.552-8.145 106.879-29.998 149.006-62.068zM832.020 493.717l191.919 27.434c-13.115 90.459-48.009 170.963-99.174 238.453l-154.18-117.665c31.476-41.347 53.309-91.675 61.231-146.504zM201.677 34.242c66.209-50.233 146.713-85.127 234.39-97.91l30.216 191.586c-56.552 8.145-106.879 29.998-149.006 62.068zM770.586 254.061l155.131-116.343c50.233 66.209 85.127 146.713 97.91 234.39l-191.586 30.216c-8.125-56.564-29.966-106.906-62.028-149.049zM557.717 127.98l27.434-191.919c90.459 13.115 170.963 48.009 238.453 99.174l-117.665 154.18c-41.347-31.476-91.675-53.309-146.504-61.231zM770.586 448c0-142.813-115.773-258.586-258.586-258.586s-258.586 115.773-258.586 258.586c0 142.813 115.773 258.586 258.586 258.586s258.586-115.773 258.586-258.586z" />
<glyph unicode="&#xe1040;" glyph-name="icon-contrast" d="M512 960c-282.78 0-512-229.24-512-512s229.22-512 512-512 512 229.24 512 512-229.22 512-512 512zM783.52 176.48c-69.111-69.481-164.785-112.481-270.502-112.481-0.358 0-0.716 0-1.074 0.001l0.055 768c212.070-0.010 383.982-171.929 383.982-384 0-106.034-42.977-202.031-112.462-271.52z" />
<glyph unicode="&#xe1041;" glyph-name="icon-expand" d="M960 960c0 0 0 0 0 0h-320v-128h165.4l-210.6-210.8c-25-25-25-65.6 0-90.6 12.4-12.4 28.8-18.8 45.2-18.8s32.8 6.2 45.2 18.8l210.8 210.8v-165.4h128v384h-64zM896 154.6l-210.8 210.6c-25 25-65.6 25-90.6 0s-25-65.6 0-90.6l210.8-210.6h-165.4v-128h384v384h-128v-165.4zM218.6 832h165.4v128h-320c0 0 0 0 0 0h-64v-384h128v165.4l210.8-210.8c12.4-12.4 28.8-18.8 45.2-18.8s32.8 6.2 45.2 18.8c25 25 25 65.6 0 90.6l-210.6 210.8zM338.8 365.2l-210.8-210.6v165.4h-128v-384h384v128h-165.4l210.8 210.8c25 25 25 65.6 0 90.6-25.2 24.8-65.6 24.8-90.6-0.2z" />
<glyph unicode="&#xe1042;" glyph-name="icon-list-view" d="M0 896h1024v-128h-1024v128zM0 640h1024v-128h-1024v128zM0 384h1024v-128h-1024v128zM0 128h1024v-128h-1024v128z" />
<glyph unicode="&#xe1043;" glyph-name="icon-grid-snap-to" d="M382 130h448v448h-448v-448zM510 450h192v-192h-192v192zM-2 386h320v-64h-320v64zM894 386h128v-64h-128v64zM574 962h64v-320h-64v320zM574 66h64v-128h-64v128zM574 386h64v-64h-64v64z" />
<glyph unicode="&#xe1044;" glyph-name="icon-grid-snap-no" d="M768 384h192v-64h-192v64zM256 384h192v-64h-192v64zM0 384h192v-64h-192v64zM640 448h-64v-64h-64v-64h64v-64h64v64h64v64h-64zM576 704h64v-192h-64v192zM576 960h64v-192h-64v192zM576 192h64v-192h-64v192z" />
<glyph unicode="&#xe1045;" glyph-name="icon-frame-show" d="M0 896v-896h1024v896h-1024zM896 128h-768v640h768v-640zM192 704h384v-128h-384v128z" />
<glyph unicode="&#xe1046;" glyph-name="icon-frame-hide" d="M128 770h420l104 128h-652v-802.4l128 157.4zM896 130h-420l-104-128h652v802.4l-128-157.4zM832 962l-832-1024h192l832 1024zM392 578l104 128h-304v-128z" />
<glyph unicode="&#xe1047;" glyph-name="icon-import" d="M832 767.6v-639.4c0-0.2-0.2-0.2-0.4-0.4h-319.6v-192h320c105.6 0 192 86.4 192 192v640.2c0 105.6-86.4 192-192 192h-320v-192h319.6c0.2 0 0.4-0.2 0.4-0.4zM192 256v-192l384 384-384 384v-192h-192v-384z" />
<glyph unicode="&#xe1048;" glyph-name="icon-export" d="M192 128.34v639.32l0.34 0.34h319.66v192h-320c-105.6 0-192-86.4-192-192v-640c0-105.6 86.4-192 192-192h320v192h-319.66zM1024 448l-384 384v-192h-192v-384h192v-192l384 384z" />
<glyph unicode="&#xe1100;" glyph-name="icon-activity" d="M576 896h-256l320-320h-290.256c-44.264 76.516-126.99 128-221.744 128h-128v-512h128c94.754 0 177.48 51.484 221.744 128h290.256l-320-320h256l448 448-448 448z" />
<glyph unicode="&#xe1101;" glyph-name="icon-activity-mode" d="M512 960c-214.866 0-398.786-132.372-474.744-320h90.744c56.86 0 107.938-24.724 143.094-64h240.906l-192 192h256l320-320-320-320h-256l192 192h-240.906c-35.156-39.276-86.234-64-143.094-64h-90.744c75.958-187.628 259.878-320 474.744-320 282.77 0 512 229.23 512 512s-229.23 512-512 512z" />
<glyph unicode="&#xe1102;" glyph-name="icon-autoflow-tabular" d="M192 960c-105.6 0-192-86.4-192-192v-640c0-105.6 86.4-192 192-192h64v1024h-64zM384 960h256v-1024h-256v1024zM832 960h-64v-704h256v512c0 105.6-86.4 192-192 192z" />
<glyph unicode="&#xe1103;" glyph-name="icon-clock" d="M512 960c-282.76 0-512-229.24-512-512s229.24-512 512-512 512 229.24 512 512-229.24 512-512 512zM782 270c-12.681-21.673-35.844-36-62.354-36-0.023 0-0.047 0-0.070 0-0.016 0-0.040 0-0.064 0-13.234 0-25.63 3.587-36.269 9.843l-221.644 127.977q-1.2 0.7-2.38 1.46l-0.86 0.56-1.86 1.28-1.26 0.9-1.26 0.96-1.7 1.34-0.64 0.54c-0.72 0.6-1.44 1.22-2.14 1.84v0c-5.012 4.562-9.331 9.758-12.863 15.491-0.457 0.769-0.717 1.249-0.997 1.709s-0.58 0.98-0.86 1.48c-3.092 5.53-5.561 11.936-7.071 18.704l-0.089 0.596c-0.2 0.92-0.38 1.84-0.54 2.76 0 0.28-0.1 0.56-0.16 0.84-0.12 0.7-0.22 1.42-0.3 2.14s-0.14 1.040-0.2 1.58-0.1 1.020-0.14 1.54-0.12 1.5-0.18 2.24c0 0.34 0 0.68 0 1.040q0 1.4 0 2.78c0 0.1 0 0.22 0 0.32v364.080c0 39.765 32.235 72 72 72s72-32.235 72-72v-322.44l185.7-107.22c21.605-12.697 35.879-35.823 35.879-62.284 0-13.278-3.594-25.716-9.862-36.395z" />
<glyph unicode="&#xe1104;" glyph-name="icon-database" d="M1024 768c0-106.039-229.23-192-512-192s-512 85.961-512 192c0 106.039 229.23 192 512 192s512-85.961 512-192zM512 448c-282.77 0-512 85.962-512 192v-512c0-106.038 229.23-192 512-192s512 85.962 512 192v512c0-106.038-229.23-192-512-192z" />
<glyph unicode="&#xe1105;" glyph-name="icon-database-query" d="M683.52 140.714c-50.782-28.456-109.284-44.714-171.52-44.714-194.094 0-352 157.906-352 352s157.906 352 352 352 352-157.906 352-352c0-62.236-16.258-120.738-44.714-171.52l191.692-191.692c8.516 13.89 13.022 28.354 13.022 43.212v640c0 106.038-229.23 192-512 192s-512-85.962-512-192v-640c0-106.038 229.23-192 512-192 126.11 0 241.548 17.108 330.776 45.46l-159.256 159.254zM352 448c0-88.224 71.776-160 160-160s160 71.776 160 160-71.776 160-160 160-160-71.776-160-160z" />
<glyph unicode="&#xe1106;" glyph-name="icon-dataset" d="M896 768h-320c-16.4 16.4-96.8 96.8-109.2 109.2l-37.4 37.4c-25 25-74.2 45.4-109.4 45.4h-256c-35.2 0-64-28.8-64-64v-384c0 70.4 57.6 128 128 128h768c70.4 0 128-57.6 128-128v128c0 70.4-57.6 128-128 128zM896 512h-768c-70.4 0-128-57.6-128-128v-320c0-70.4 57.6-128 128-128h768c70.4 0 128 57.6 128 128v320c0 70.4-57.6 128-128 128zM320 64h-128v320h128v-320zM576 64h-128v320h128v-320zM832 64h-128v320h128v-320z" />
<glyph unicode="&#xe1107;" glyph-name="icon-datatable" d="M1024 768c0-106.039-229.23-192-512-192s-512 85.961-512 192c0 106.039 229.23 192 512 192s512-85.961 512-192zM512 448c-282.8 0-512 86-512 192v-512c0-106 229.2-192 512-192s512 86 512 192v512c0-106-229.2-192-512-192zM896 385v-256c-36.6-15.6-79.8-28.8-128-39.4v256c48.2 10.6 91.4 23.8 128 39.4zM256 345.6v-256c-48.2 10.4-91.4 23.8-128 39.4v256c36.6-15.6 79.8-28.8 128-39.4zM384 70v256c41-4 83.8-6 128-6s87 2.2 128 6v-256c-41-4-83.8-6-128-6s-87 2.2-128 6z" />
<glyph unicode="&#xe1108;" glyph-name="icon-dictionary" d="M832 320c105.6 0 192 86.4 192 192v256c0 105.6-86.4 192-192 192v-320l-128 64-128-64v320h-384c-105.6 0-192-86.4-192-192v-640c0-105.6 86.4-192 192-192h640c105.6 0 192 86.4 192 192v192c0-105.6-86.4-192-192-192h-640v192h640z" />
<glyph unicode="&#xe1109;" glyph-name="icon-folder" d="M896 768h-320c-16.4 16.4-96.8 96.8-109.2 109.2l-37.4 37.4c-25 25-74.2 45.4-109.4 45.4h-256c-35.2 0-64-28.8-64-64v-384c0 70.4 57.6 128 128 128h768c70.4 0 128-57.6 128-128v128c0 70.4-57.6 128-128 128zM896 512h-768c-70.4 0-128-57.6-128-128v-320c0-70.4 57.6-128 128-128h768c70.4 0 128 57.6 128 128v320c0 70.4-57.6 128-128 128z" />
<glyph unicode="&#xe1110;" glyph-name="icon-image" d="M896 960h-768c-70.4 0-128-57.6-128-128v-768c0-70.4 57.6-128 128-128h768c70.4 0 128 57.6 128 128v768c0 70.4-57.6 128-128 128zM896 64h-768v768h768v-768zM320 704l-128-128v-448h640v320l-128 128-128-128z" />
<glyph unicode="&#xe1111;" glyph-name="icon-layout" d="M448 960h-256c-105.6 0-192-86.4-192-192v-640c0-105.6 86.4-192 192-192h256v1024zM832 960h-256v-577.664h448v385.664c0 105.6-86.4 192-192 192zM576-64h256c105.6 0 192 86.4 192 192v129.664h-448v-321.664z" />
<glyph unicode="&#xe1112;" glyph-name="icon-object" d="M512-64l512 320v384l-512.020 320-511.98-320v-384l512-320zM512 768l358.4-224-358.4-224-358.4 224 358.4 224z" />
<glyph unicode="&#xe1113;" glyph-name="icon-object-unknown" d="M510 962l-512-320v-384l512-320 512 320v384l-512 320zM585.4 100.8c-21.2-20.8-46-30.8-76-30.8-31.2 0-56.2 9.8-76.2 29.6-20 20-29.6 44.8-29.6 76.2 0 30.4 10.2 55.2 31 76.2s45.2 31.2 74.8 31.2c29.6 0 54.2-10.4 75.6-32s31.8-46.4 31.8-76c-0.2-29-10.8-54-31.4-74.4zM638.2 413.4c-23.6-11.8-37.4-22-43.4-32.4-3.6-6.2-6-14.8-7.4-26.8v-41h-161.4v44.2c0 40.2 4.4 69.8 13 88 8 17.2 22.6 30.2 44.8 40l34.8 15.4c32 14.2 48.2 35.2 48.2 62.8 0 16-6 30.4-17.2 41.8-11.2 11.2-25.6 17.2-41.6 17.2-24 0-54.4-10-62.8-57.4l-2.2-12.2h-147l1.4 16.2c4 44.6 17 82.4 38.8 112.2 19.6 27 45.6 48.6 77 64.6s64.6 24 98.2 24c60.6 0 110.2-19.4 151.4-59.6 41.2-40 61.2-88 61.2-147.2 0-70.8-28.8-121.4-85.8-149.8z" />
<glyph unicode="&#xe1114;" glyph-name="icon-packet" d="M511.98 960l-511.98-320v-512c0-105.6 86.4-192 192-192h640c105.6 0 192 86.4 192 192v512l-512.020 320zM512 768l358.4-224-358.4-224-358.4 224 358.4 224z" />
<glyph unicode="&#xe1115;" glyph-name="icon-page" d="M702 452c-105.6 0-192 86.4-192 192v320h-320c-105.6 0-192-86.4-192-192v-640c0-105.6 86.4-192 192-192h640c105.6 0 192 86.4 192 192v320h-320zM766 580h256l-384 384v-256c0-70.4 57.6-128 128-128z" />
<glyph unicode="&#xe1116;" glyph-name="icon-plot-overlay" d="M830 960h-636c-106.7 0-194-87.3-194-194v-406.82c14.18-18.64 25.66-28.34 32-30.84 14.28 5.62 54.44 47.54 92.96 146 42.46 108.38 116.32 237.66 227.040 237.66 52.4 0 101.42-29.16 145.7-86.68 37.34-48.5 64.84-108.92 81.34-151.080 38.52-98.38 78.68-140.3 92.96-146 14.28 5.62 54.44 47.54 92.96 146 42.46 108.48 116.32 237.76 227.040 237.76 11.354-0.003 22.389-1.366 32.952-3.936l-0.952 57.936c0 106.7-87.3 194-194 194zM992 567.66c-14.28-5.62-54.44-47.52-92.96-146-42.46-108.38-116.32-237.66-227.040-237.66-52.4 0-101.42 29.16-145.7 86.68-37.34 48.5-64.84 108.92-81.34 151.080-38.52 98.38-78.68 140.3-92.96 146-14.28-5.62-54.44-47.52-92.96-146-42.46-108.48-116.32-237.76-227.040-237.76-11.355 0.003-22.389 1.367-32.952 3.936l0.952-57.936c0-106.7 87.3-194 194-194h636c106.7 0 194 87.3 194 194v406.82c-14.18 18.64-25.66 28.34-32 30.84z" />
<glyph unicode="&#xe1117;" glyph-name="icon-plot-stacked" d="M89.6 648c24.98 0 48.96 26.52 85.52 70.18 45.42 54.28 102 121.82 196 121.82 44.64 0 86.62-15.46 124.8-46 28.68-22.9 51.16-50.42 72.92-77.060 38.42-46.94 59.16-68.94 83.96-68.94h371.2v118c0 106.7-87.3 194-194 194h-636c-106.7 0-194-87.3-194-194v-118h89.6zM529.5 549.6c-28.24 22.64-50.52 50-72 76.28-35.5 43.48-58.76 70.12-86.3 70.12-25.060 0-49.080-26.54-85.66-70.24-45.4-54.24-102-121.76-196-121.76h-89.54v-112h371.2c44 0 85.54-15.34 123.3-45.6 28.24-22.64 50.52-50 72-76.28 35.5-43.48 58.76-70.12 86.3-70.12 25.060 0 49.080 26.54 85.66 70.24 45.4 54.24 102 121.76 196 121.76h89.54v112h-371.2c-44.060 0-85.54 15.34-123.3 45.6zM934.4 248c-24.98 0-48.96-26.52-85.52-70.18-45.42-54.28-102-121.82-196-121.82-44.64 0-86.62 15.46-124.8 46-28.68 22.9-51.16 50.42-72.92 77.060-38.42 46.94-59.16 68.94-83.96 68.94h-371.2v-118c0-106.7 87.3-194 194-194h636c106.7 0 194 87.3 194 194v118h-89.6z" />
<glyph unicode="&#xe1118;" glyph-name="icon-session" d="M635.6 435.6c6.6-4.2 13.2-8.6 19.2-13.6l120.4-96.4c29.6-23.8 83.8-23.8 113.4 0l135.2 108c0.2 4.8 0.2 9.4 0.2 14.2 0 52.2-7.8 102.4-22.2 149.8l-154.8-123.6c-58.2-46.6-140.2-59.2-211.4-38.4zM248.6 325.8l120.4 96.4c58 46.4 140 59.2 211.2 38.4-6.6 4.2-13.2 8.6-19.2 13.6l-120.4 96.4c-29.6 23.8-83.8 23.8-113.4 0l-120.2-96.6c-40-32-91.4-48-143-48-21.6 0-43 2.8-63.8 8.4 0-0.6 0-1.2 0-1.6 5-3.4 10-6.8 14.6-10.6l120.4-96.4c29.8-23.8 83.8-23.8 113.4 0zM120.6 581.8l120.4 96.4c80.2 64.2 205.6 64.2 285.8 0l120.4-96.4c29.6-23.8 83.8-23.8 113.4 0l181 144.8c-91.2 140.4-249.6 233.4-429.6 233.4-238.6 0-439.2-163.2-496-384.2 30.8-17.6 77.8-15.6 104.6 6zM689 218l-120.4 96.4c-29.6 23.8-83.8 23.8-113.4 0l-120.2-96.4c-40-32-91.4-48-143-48-47.8 0-95.4 13.8-134.2 41.4 85.6-163.6 256.8-275.4 454.2-275.4s368.6 111.8 454.2 275.4c-80.4-57.4-199.8-55.2-277.2 6.6z" />
<glyph unicode="&#xe1119;" glyph-name="icon-tabular" d="M896 960h-768c-70.4 0-128-57.6-128-128v-768c0-70.4 57.6-128 128-128h768c70.4 0 128 57.6 128 128v768c0 70.4-57.6 128-128 128zM640 512h-256v192h256v-192zM384 448h256v-192h-256v192zM320 256h-256v192h256v-192zM320 704v-192h-256v192h256zM128 0c-17 0-33 6.6-45.2 18.8s-18.8 28.2-18.8 45.2v128h256v-192h-192zM384 0v192h256v-192h-256zM960 64c0-17-6.6-33-18.8-45.2s-28.2-18.8-45.2-18.8h-192v192h256v-128zM960 256h-256v192h256v-192zM960 512h-256v192h256v-192z" />
<glyph unicode="&#xe1120;" glyph-name="icon-tabular-lad" d="M896 960h-768c-70.606-0.215-127.785-57.394-128-127.979v-768.021c0.215-70.606 57.394-127.785 127.979-128h768.021c70.606 0.215 127.785 57.394 128 127.979v768.021c-0.215 70.606-57.394 127.785-127.979 128zM64 704h256v-192h-256v192zM64 448h256v-192h-256v192zM128 0c-35.26 0.214-63.786 28.74-64 63.98v128.020h256v-192h-192zM384 0v192h256v-192h-256zM960 64c-0.214-35.26-28.74-63.786-63.98-64h-192.020v192h256v-128zM960 448v-192h-576v192h64v64h-64v192h576v-192h-64v-64h64zM782.32 412.62l-110.32 55.16v172.22c0 17.673-14.327 32-32 32s-32-14.327-32-32v-211.78l145.68-72.84c4.172-2.133 9.1-3.383 14.32-3.383 17.675 0 32.003 14.328 32.003 32.003 0 12.454-7.114 23.247-17.501 28.536z" />
<glyph unicode="&#xe1121;" glyph-name="icon-tabular-lad-set" d="M128 192v576c-70.606-0.215-127.785-57.394-128-127.979v-576.021c0.215-70.606 57.394-127.785 127.979-128h576.021c70.606 0.215 127.785 57.394 128 127.979l-576 0.021c-70.606 0.215-127.785 57.394-128 127.979zM896 960h-576c-70.606-0.215-127.785-57.394-128-127.979v-576.021c0.215-70.606 57.394-127.785 127.979-128h576.021c70.606 0.215 127.785 57.394 128 127.979v576.021c-0.215 70.606-57.394 127.785-127.979 128zM256 768h192v-128h-192v128zM256 576h192v-192h-192v192zM320 192c-35.26 0.214-63.786 28.74-64 63.98v64.020h192v-128h-128zM512 192v128h192v-128h-192zM960 256c-0.214-35.26-28.74-63.786-63.98-64h-128.020v128h192v-64zM960 384h-448v384h448v-384zM832 480c0.002 0 0.005 0 0.007 0 17.673 0 32 14.327 32 32 0 14.055-9.062 25.994-21.662 30.293l-74.345 24.767v104.94c0 17.673-14.327 32-32 32s-32-14.327-32-32v-151.060l117.88-39.3c3.018-1.040 6.495-1.64 10.113-1.64 0.003 0 0.005 0 0.008 0z" />
<glyph unicode="&#xe1122;" glyph-name="icon-tabular-realtime" d="M896 960h-768c-70.606-0.215-127.785-57.394-128-127.979v-768.021c0.215-70.606 57.394-127.785 127.979-128h768.021c70.606 0.215 127.785 57.394 128 127.979v768.021c-0.215 70.606-57.394 127.785-127.979 128zM448 668l25.060-25.32c7.916-7.922 18.856-12.822 30.94-12.822s23.024 4.9 30.94 12.822l75.5 76.3c29.97 30.338 71.571 49.128 117.56 49.128s87.59-18.79 117.544-49.112l50.456-50.997v-152.2c-24.111 8.83-44.678 22.255-61.542 39.342l-75.518 76.318c-7.916 7.922-18.856 12.822-30.94 12.822s-23.024-4.9-30.94-12.822l-75.5-76.3c-29.971-30.343-71.575-49.137-117.568-49.137-20.084 0-39.331 3.584-57.137 10.146l1.145 151.831zM320 0h-192c-35.26 0.214-63.786 28.74-64 63.98v128.020h256v-192zM320 256h-256v192h256v-192zM320 512h-256v192h256v-192zM640 0h-256v192h256v-192zM448 323.38v174.5c1.88-1.74 3.74-3.5 5.56-5.34l75.5-76.3c7.916-7.922 18.856-12.822 30.94-12.822s23.024 4.9 30.94 12.822l75.5 76.3c29.966 30.333 71.56 49.119 117.542 49.119 43.28 0 82.673-16.644 112.128-43.879l-0.11-174.399c-1.88 1.74-3.74 3.5-5.56 5.34l-75.5 76.3c-7.916 7.922-18.856 12.822-30.94 12.822s-23.024-4.9-30.94-12.822l-75.5-76.3c-29.966-30.333-71.56-49.119-117.542-49.119-43.28 0-82.673 16.644-112.128 43.879zM960 64c-0.214-35.26-28.74-63.786-63.98-64h-192.020v192h256v-128z" />
<glyph unicode="&#xe1123;" glyph-name="icon-tabular-scrolling" d="M64 960c-35.2 0-64-28.8-64-64v-192h448v256h-384zM1024 704v192c0 35.2-28.8 64-64 64h-384v-256h448zM0 576v-192c0-35.2 28.8-64 64-64h384v256h-448zM960 320c35.2 0 64 28.8 64 64v192h-448v-256h384zM512-64l-256 256h512z" />
<glyph unicode="&#xe1124;" glyph-name="icon-telemetry" d="M32 328.34c14.28 5.62 54.44 47.54 92.96 146 42.46 108.38 116.32 237.66 227.040 237.66 52.4 0 101.42-29.16 145.7-86.68 37.34-48.5 64.84-108.92 81.34-151.080 38.52-98.38 78.68-140.3 92.96-146 14.28 5.62 54.44 47.54 92.96 146 37.4 95.5 99.14 207.14 188.94 232.46-90.462 152.598-254.314 253.3-441.686 253.3-0.075 0-0.15 0-0.226 0-282.748 0-511.988-229.24-511.988-512 0-0.032 0-0.070 0-0.108 0-35.719 3.641-70.587 10.572-104.255 8.968-7.457 16.648-13.417 21.428-15.297zM992 567.66c-14.28-5.62-54.44-47.52-92.96-146-42.46-108.38-116.32-237.66-227.040-237.66-52.4 0-101.42 29.16-145.7 86.68-37.34 48.5-64.84 108.92-81.34 151.080-38.52 98.38-78.68 140.3-92.96 146-14.28-5.62-54.44-47.52-92.96-146-37.4-95.5-99.14-207.14-188.94-232.46 90.462-152.598 254.314-253.3 441.686-253.3 0.075 0 0.15 0 0.226 0 282.748 0 511.988 229.24 511.988 512 0 0.032 0 0.070 0 0.108 0 35.719-3.641 70.587-10.572 104.255-8.968 7.457-16.648 13.417-21.428 15.297z" />
<glyph unicode="&#xe1125;" glyph-name="icon-telemetry-panel" d="M169.2 512c14 56.4 33 122 56.6 176.8 15.4 35.8 31.2 63.2 48.2 84 18.4 22.4 49 49.2 91 49.2s72.6-26.8 91-49.2c17-20.6 32.6-48.2 48.2-84 23.6-54.8 42.8-120.4 56.6-176.8h461.2v256c0 105.6-86.4 192-192 192h-640c-105.6 0-192-86.4-192-192v-256h171.2zM718.6 384h-127.2c25-93.4 48.4-144.4 63.6-168.6 15.2 24.2 38.6 75.2 63.6 168.6zM301.4 512h127.2c-25 93.4-48.4 144.4-63.6 168.6-15.2-24.2-38.6-75.2-63.6-168.6zM850.8 384c-14-56.4-33-122-56.6-176.8-15.4-35.8-31.2-63.2-48.2-84-18.4-22.4-49-49.2-91-49.2s-72.6 26.8-91 49.2c-17 20.6-32.6 48.2-48.2 84-23.6 54.8-42.8 120.4-56.6 176.8h-461.2v-256c0-105.6 86.4-192 192-192h640c105.6 0 192 86.4 192 192v256h-171.2z" />
<glyph unicode="&#xe1126;" glyph-name="icon-timeline" d="M256 704h384v-128h-384v128zM384 512h384v-128h-384v128zM320 320h384v-128h-384v128zM832 960h-128v-192h127.6c0.2 0 0.2-0.2 0.4-0.4v-639.4c0-0.2-0.2-0.2-0.4-0.4h-127.6v-192h128c105.6 0 192 86.4 192 192v640.2c0 105.6-86.4 192-192 192zM192 128.4v639.2c0 0.2 0.2 0.2 0.4 0.4h127.6v192h-128c-105.6 0-192-86.4-192-192v-640c0-105.6 86.4-192 192-192h128v192h-127.6c-0.2 0-0.4 0.2-0.4 0.4z" />
<glyph unicode="&#xe1127;" glyph-name="icon-timer-v1.5" horiz-adv-x="896" d="M576 813.4v82.58c0 35.346-28.654 64-64 64h-128c-35.346 0-64-28.654-64-64v-82.58c-185.040-55.080-320-226.48-320-429.42 0-247.42 200.58-448 448-448s448 200.58 448 448c0 202.96-135 374.4-320 429.42zM468 363.98l-263.76-211c-57.105 59.935-92.24 141.251-92.24 230.772 0 0.080 0 0.16 0 0.24 0 185.268 150.72 335.988 336 335.988 6.72 0 13.38-0.22 20-0.62v-355.38z" />
<glyph unicode="&#xe1128;" glyph-name="icon-topic" d="M454.36 483.36l86.3 86.3c9.088 8.965 21.577 14.502 35.36 14.502s26.272-5.537 35.366-14.507l86.294-86.294c19.328-19.358 42.832-34.541 69.047-44.082l1.313 171.722-57.64 57.64c-34.407 34.33-81.9 55.558-134.35 55.558s-99.943-21.228-134.354-55.562l-86.296-86.297c-9.088-8.965-21.577-14.502-35.36-14.502s-26.272 5.537-35.366 14.507l-28.674 28.654v-172.14c19.045-7.022 41.040-11.084 63.984-11.084 52.463 0 99.966 21.239 134.379 55.587zM505.64 412.64l-86.3-86.3c-9.088-8.965-21.577-14.502-35.36-14.502s-26.272 5.537-35.366 14.507l-86.294 86.294c-2 2-4.2 4-6.36 6v-197.36c33.664-30.72 78.65-49.537 128.031-49.537 52.44 0 99.923 21.22 134.333 55.541l86.296 86.296c9.088 8.965 21.577 14.502 35.36 14.502s26.272-5.537 35.366-14.507l86.294-86.294c2-2 4.2-4 6.36-6v197.36c-33.664 30.72-78.65 49.537-128.031 49.537-52.44 0-99.923-21.22-134.333-55.541zM832 960h-128v-192h127.66l0.34-0.34v-639.32l-0.34-0.34h-127.66v-192h128c105.6 0 192 86.4 192 192v640c0 105.6-86.4 192-192 192zM320 128h-127.66l-0.34 0.34v639.32l0.34 0.34h127.66v192h-128c-105.6 0-192-86.4-192-192v-640c0-105.6 86.4-192 192-192h128v192z" />
<glyph unicode="&#xe1129;" glyph-name="icon-box-with-dashed-lines" d="M0 576h128v-256h-128v256zM128 831.78l0.22 0.22h191.78v128h-192c-70.606-0.215-127.785-57.394-128-127.979v-192.021h128v191.78zM128 64.22v191.78h-128v-192c0.215-70.606 57.394-127.785 127.979-128h192.021v128h-191.78zM384 960h256v-128h-256v128zM896 64.22l-0.22-0.22h-191.78v-128h192c70.606 0.215 127.785 57.394 128 127.979v192.021h-128v-191.78zM896 960h-192v-128h191.78l0.22-0.22v-191.78h128v192c-0.215 70.606-57.394 127.785-127.979 128zM896 576h128v-256h-128v256zM384 64h256v-128h-256v128zM256 704h512v-512h-512v512z" />
<glyph unicode="&#xe1130;" glyph-name="icon-summary-widget" d="M896 960h-768c-70.4 0-128-57.6-128-128v-768c0-70.4 57.6-128 128-128h768c70.4 0 128 57.6 128 128v768c0 70.4-57.6 128-128 128zM847.8 349.6l-82.6-143.2-189.6 131.6 19.2-230h-165.4l19.2 230-189.6-131.6-82.6 143.2 208.6 98.4-208.8 98.4 82.6 143.2 189.6-131.6-19.2 230h165.4l-19.2-230 189.6 131.6 82.6-143.2-208.6-98.4 208.8-98.4z" />
<glyph unicode="&#xe1131;" glyph-name="icon-notebook" d="M896 849.2c0 79.8-55.4 127.4-123 105.4l-773-250.6h896v145.2zM896 640h-896v-576c0-70.4 57.6-128 128-128h768c70.4 0 128 57.6 128 128v448c0 70.4-57.6 128-128 128zM832 128h-384v320h384v-320z" />
</font>
</defs>
</svg>
