<?xml version="1.0" standalone="no"?>
  <!DOCTYPE svg PUBLIC "-//W3C//DTD SVG 1.1//EN" "http://www.w3.org/Graphics/SVG/1.1/DTD/svg11.dtd" >
  <svg>
  <metadata>
  Created by font-carrier
  </metadata>
  <defs>
  <font id="NotoSans-BoldItalic" horiz-adv-x="2800" vert-adv-y="2800" >
    <font-face
      
      font-family="Noto Sans"
      
      font-weight="400"
      
      font-stretch="normal"
      
      units-per-em="1000"
      
      ascent="1069"
      
      descent="-293"
      
    />
      <missing-glyph />

      

      
      <glyph glyph-name="uni21" unicode="&#x21;" d="M69 237L150 714L316 714L195 237L69 237M88-13Q46-13 29 8.50Q12 30 12 56Q12 92 34.50 122.50Q57 153 112 153Q145 153 165 134.50Q185 116 185 82Q185 41 158.50 14Q132-13 88-13Z"  horiz-adv-x="286" vert-adv-y="1000"  />

      
      <glyph glyph-name="uni22" unicode="&#x22;" d="M295 456L331 714L466 714L392 456L295 456M98 456L133 714L268 714L194 456L98 456Z"  horiz-adv-x="453" vert-adv-y="1000"  />

      
      <glyph glyph-name="uni23" unicode="&#x23;" d="M81 0L136 199L20 199L29 300L164 300L198 413L75 413L84 515L225 515L283 714L389 714L332 515L429 515L486 714L591 714L534 515L651 515L642 413L506 413L472 300L598 300L589 199L444 199L387 0L280 0L337 199L242 199L186 0L81 0M270 300L366 300L400 413L304 413L270 300Z"  horiz-adv-x="646" vert-adv-y="1000"  />

      
      <glyph glyph-name="uni24" unicode="&#x24;" d="M177-58L198 40Q147 43 104 53Q61 63 25 82L25 212Q62 191 113 174Q164 157 222 155L257 312Q214 328 178.50 351.50Q143 375 122 408.50Q101 442 101 490Q101 550 131 592Q161 634 213.50 658Q266 682 334 686L351 760L419 760L403 686Q444 681 478 671Q512 661 547 642L495 529Q467 542 436.50 552.50Q406 563 377 565L346 419Q391 402 427 380Q463 358 484 325Q505 292 505 242Q505 160 448.50 104Q392 48 264 39L245-58L177-58M284 445L309 565Q284 562 264.50 547Q245 532 245 499Q245 461 284 445M290 157Q321 162 340 179.50Q359 197 359 227Q359 250 347 264Q335 278 318 285L290 157Z"  horiz-adv-x="551" vert-adv-y="1000"  />

      
      <glyph glyph-name="uni25" unicode="&#x25;" d="M194 276Q126 276 91 317Q56 358 56 432Q56 476 66.50 526.50Q77 577 100.50 622Q124 667 163.50 695.50Q203 724 261 724Q328 724 364.50 685Q401 646 401 569Q401 526 390.50 475.50Q380 425 356 379.50Q332 334 292 305Q252 276 194 276M113 0L644 714L759 714L230 0L113 0M203 377Q221 377 235.50 396.50Q250 416 260 446Q270 476 275.50 510.50Q281 545 281 575Q281 622 253 622Q236 622 222 604Q208 586 198 556Q188 526 182 491.50Q176 457 176 424Q176 377 203 377M616-9Q546-9 510.50 29.50Q475 68 475 138Q475 190 486 243.50Q497 297 521.50 341Q546 385 585 412Q624 439 680 439Q747 439 783.50 400.50Q820 362 820 288Q820 243 809.50 191.50Q799 140 775 94.50Q751 49 712 20Q673-9 616-9M622 92Q640 92 654.50 111.50Q669 131 679 161Q689 191 694.50 225.50Q700 260 700 290Q700 337 672 337Q656 337 641.50 319Q627 301 617 271Q607 241 601 206.50Q595 172 595 139Q595 92 622 92Z"  horiz-adv-x="856" vert-adv-y="1000"  />

      
      <glyph glyph-name="uni26" unicode="&#x26;" d="M244-10Q143-10 88 38Q33 86 33 175Q33 250 75 300Q117 350 205 394Q168 456 168 520Q168 588 196 633.50Q224 679 272 702Q320 725 380 725Q442 725 481.50 704Q521 683 539 649Q557 615 557 575Q557 501 509.50 451Q462 401 379 367L474 239Q502 274 519 308.50Q536 343 552 383L698 383Q668 312 631.50 251Q595 190 547 140L647 0L476 0L441 48Q402 22 354.50 6Q307-10 244-10M323 449Q363 469 391.50 494.50Q420 520 420 558Q420 586 405 598.50Q390 611 371 611Q337 611 320 587Q303 563 303 530Q303 508 309 485Q315 462 323 449M266 115Q298 115 325 123.50Q352 132 374 144L264 304Q229 284 208 258Q187 232 187 189Q187 160 207.50 137.50Q228 115 266 115Z"  horiz-adv-x="708" vert-adv-y="1000"  />

      
      <glyph glyph-name="uni27" unicode="&#x27;" d="M98 456L133 714L268 714L194 456L98 456Z"  horiz-adv-x="255" vert-adv-y="1000"  />

      
      <glyph glyph-name="uni28" unicode="&#x28;" d="M109-158Q72-94 54-18.50Q36 57 36 137Q36 310 99 450Q162 590 282 714L410 714Q339 636 284 547Q229 458 197.50 354.50Q166 251 166 132Q166 56 181-18Q196-92 223-158L109-158Z"  horiz-adv-x="339" vert-adv-y="1000"  />

      
      <glyph glyph-name="uni29" unicode="&#x29;" d="M-72-158Q-1-80 54 9Q109 98 140.50 201.50Q172 305 172 424Q172 500 157 574Q142 648 115 714L229 714Q266 650 284 574.50Q302 499 302 419Q302 246 239 106Q176-34 56-158L-72-158Z"  horiz-adv-x="339" vert-adv-y="1000"  />

      
      <glyph glyph-name="uni2a" unicode="&#x2a;" d="M350 282L306 447L210 311L109 391L243 512L84 557L126 673L291 588L307 768L432 743L377 571L566 585L557 461L392 482L470 318L350 282Z"  horiz-adv-x="545" vert-adv-y="1000"  />

      
      <glyph glyph-name="uni2b" unicode="&#x2b;" d="M349 406L538 406L538 299L349 299L349 111L242 111L242 299L53 299L53 406L242 406L242 596L349 596L349 406Z"  horiz-adv-x="572" vert-adv-y="1000"  />

      
      <glyph glyph-name="uni2c" unicode="&#x2c;" d="M-50-129Q-24-70 1-3Q26 64 45 116L184 116L188 105Q164 52 129.50-11Q95-74 60-129L-50-129Z"  horiz-adv-x="285" vert-adv-y="1000"  />

      
      <glyph glyph-name="uni2d" unicode="&#x2d;" d="M20 207L46 329L302 329L276 207L20 207Z"  horiz-adv-x="322" vert-adv-y="1000"  />

      
      <glyph glyph-name="uni2e" unicode="&#x2e;" d="M88-13Q46-13 29 8.50Q12 30 12 56Q12 92 34.50 122.50Q57 153 112 153Q145 153 165 134.50Q185 116 185 82Q185 41 158.50 14Q132-13 88-13Z"  horiz-adv-x="285" vert-adv-y="1000"  />

      
      <glyph glyph-name="uni2f" unicode="&#x2f;" d="M-44 0L351 714L495 714L100 0L-44 0Z"  horiz-adv-x="421" vert-adv-y="1000"  />

      
      <glyph glyph-name="uni30" unicode="&#x30;" d="M229-10Q128-10 80 52Q32 114 32 228Q32 326 52 415.50Q72 505 112 574.50Q152 644 211 684.50Q270 725 347 725Q438 725 490 670Q542 615 542 494Q542 399 524 309Q506 219 468.50 147Q431 75 371.50 32.50Q312-10 229-10M241 112Q269 112 293 136.50Q317 161 336 202.50Q355 244 367.50 294.50Q380 345 387 398.50Q394 452 394 499Q394 553 379 578Q364 603 334 603Q304 603 279.50 576Q255 549 236.50 505.50Q218 462 205.50 411.50Q193 361 186.50 311.50Q180 262 180 225Q180 170 193.50 141Q207 112 241 112Z"  horiz-adv-x="551" vert-adv-y="1000"  />

      
      <glyph glyph-name="uni31" unicode="&#x31;" d="M187 0L275 405Q280 430 291 471.50Q302 513 312 545Q303 538 284 523.50Q265 509 249 499L154 439L89 544L365 714L487 714L336 0L187 0Z"  horiz-adv-x="551" vert-adv-y="1000"  />

      
      <glyph glyph-name="uni32" unicode="&#x32;" d="M-24 0L-3 104L230 311Q288 362 322 399.50Q356 437 370.50 466.50Q385 496 385 523Q385 560 365 579Q345 598 311 598Q275 598 241 580Q207 562 161 524L90 623Q140 666 199 695Q258 724 335 724Q405 724 449.50 699Q494 674 515 634Q536 594 536 550Q536 486 508.50 434.50Q481 383 433.50 336.50Q386 290 326 240L195 132L195 127L472 127L446 0L-24 0Z"  horiz-adv-x="551" vert-adv-y="1000"  />

      
      <glyph glyph-name="uni33" unicode="&#x33;" d="M196-10Q140-10 91.50 0Q43 10 7 29L7 159Q48 135 96 122.50Q144 110 189 110Q260 110 304.50 139Q349 168 349 227Q349 263 322.50 287Q296 311 223 311L156 311L178 419L214 419Q256 419 296.50 430Q337 441 363 465.50Q389 490 389 533Q389 562 370 582Q351 602 309 602Q265 602 229.50 586Q194 570 169 553L107 653Q155 684 208.50 704Q262 724 341 724Q440 724 489.50 677.50Q539 631 539 561Q539 487 494 435.50Q449 384 365 369L365 365Q419 354 457 318.50Q495 283 495 215Q495 158 464 106.50Q433 55 367 22.50Q301-10 196-10Z"  horiz-adv-x="551" vert-adv-y="1000"  />

      
      <glyph glyph-name="uni34" unicode="&#x34;" d="M245 0L276 148L-12 148L11 262L387 714L539 714L444 265L527 265L502 148L419 148L388 0L245 0M149 265L301 265L329 386Q334 412 342 442Q350 472 357 497.50Q364 523 369 535L364 535Q353 516 336 492Q319 468 302 447L149 265Z"  horiz-adv-x="551" vert-adv-y="1000"  />

      
      <glyph glyph-name="uni35" unicode="&#x35;" d="M199-10Q141-10 92.50 1.50Q44 13 13 30L13 161Q49 141 93 127Q137 113 185 113Q245 113 280 132.50Q315 152 330 181.50Q345 211 345 242Q345 280 321.50 307Q298 334 236 334Q206 334 178 328.50Q150 323 132 318L81 356L182 714L551 714L524 586L285 586L242 443Q254 445 269.50 447.50Q285 450 304 450Q358 450 402 429.50Q446 409 471.50 367Q497 325 497 260Q497 186 465.50 124.50Q434 63 368 26.50Q302-10 199-10Z"  horiz-adv-x="551" vert-adv-y="1000"  />

      
      <glyph glyph-name="uni36" unicode="&#x36;" d="M252-10Q148-10 95.50 52Q43 114 43 229Q43 306 62 383Q81 460 116.50 526Q152 592 201 637Q250 681 311 703Q372 725 454 725Q485 725 514.50 721Q544 717 563 712L538 592Q520 597 494.50 600.50Q469 604 445 604Q345 604 287 548Q229 492 199 383L203 383Q228 418 265 441Q302 464 355 464Q428 464 471.50 418Q515 372 515 283Q515 241 502.50 190.50Q490 140 460 94.50Q430 49 379 19.50Q328-10 252-10M259 111Q296 111 320 135Q344 159 356 195.50Q368 232 368 272Q368 306 351.50 327Q335 348 302 348Q274 348 250 333Q226 318 210.50 296Q195 274 191 251Q189 240 188 228.50Q187 217 187 206Q187 165 205.50 138Q224 111 259 111Z"  horiz-adv-x="551" vert-adv-y="1000"  />

      
      <glyph glyph-name="uni37" unicode="&#x37;" d="M38 0L398 587L91 587L118 714L594 714L574 619L207 0L38 0Z"  horiz-adv-x="551" vert-adv-y="1000"  />

      
      <glyph glyph-name="uni38" unicode="&#x38;" d="M251-10Q139-10 83 42Q27 94 27 171Q27 248 71 298.50Q115 349 197 379Q167 402 141.50 438.50Q116 475 116 525Q116 580 143 625.50Q170 671 222.50 698Q275 725 352 725Q418 725 462 702.50Q506 680 528 643Q550 606 550 562Q550 510 528.50 473.50Q507 437 472.50 412.50Q438 388 398 374Q424 357 448.50 333Q473 309 488.50 275.50Q504 242 504 196Q504 144 477 96.50Q450 49 394 19.50Q338-10 251-10M318 436Q360 452 384 478.50Q408 505 408 544Q408 577 389 596Q370 615 339 615Q300 615 279 591.50Q258 568 258 534Q258 499 274.50 475Q291 451 318 436M262 101Q313 101 337 130Q361 159 361 195Q361 236 339.50 264Q318 292 284 314Q228 292 200 261.50Q172 231 172 187Q172 148 196.50 124.50Q221 101 262 101Z"  horiz-adv-x="551" vert-adv-y="1000"  />

      
      <glyph glyph-name="uni39" unicode="&#x39;" d="M159-10Q126-10 94-5Q62 0 42 6L42 131Q61 124 90.50 117.50Q120 111 153 111Q207 111 245 129.50Q283 148 308 179Q333 210 349 249Q365 288 375 328L371 328Q347 294 312 272.50Q277 251 227 251Q142 251 101 305Q60 359 60 441Q60 481 72.50 529.50Q85 578 115 622.50Q145 667 198 696Q251 725 331 725Q422 725 477.50 669.50Q533 614 533 489Q533 418 518 342.50Q503 267 472.50 198.50Q442 130 397 83Q355 40 297 15Q239-10 159-10M277 367Q306 367 328 382.50Q350 398 364 421Q378 444 382 466Q384 477 385 488.50Q386 500 386 511Q386 552 369 578Q352 604 315 604Q278 604 254.50 580.50Q231 557 219 522.50Q207 488 207 453Q207 411 225.50 389Q244 367 277 367Z"  horiz-adv-x="551" vert-adv-y="1000"  />

      
      <glyph glyph-name="uni3a" unicode="&#x3a;" d="M177 390Q135 390 118 411.50Q101 433 101 459Q101 495 123.50 525.50Q146 556 201 556Q234 556 254 537.50Q274 519 274 485Q274 444 247.50 417Q221 390 177 390M88-13Q46-13 29 8.50Q12 30 12 56Q12 92 34.50 122.50Q57 153 112 153Q145 153 165 134.50Q185 116 185 82Q185 41 158.50 14Q132-13 88-13Z"  horiz-adv-x="285" vert-adv-y="1000"  />

      
      <glyph glyph-name="uni3b" unicode="&#x3b;" d="M177 390Q135 390 118 411.50Q101 433 101 459Q101 495 123.50 525.50Q146 556 201 556Q234 556 254 537.50Q274 519 274 485Q274 444 247.50 417Q221 390 177 390M-50-129Q-24-70 1-3Q26 64 45 116L184 116L188 105Q164 52 129.50-11Q95-74 60-129L-50-129Z"  horiz-adv-x="285" vert-adv-y="1000"  />

      
      <glyph glyph-name="uni3c" unicode="&#x3c;" d="M538 99L53 313L53 383L538 625L538 508L204 353L538 216L538 99Z"  horiz-adv-x="572" vert-adv-y="1000"  />

      
      <glyph glyph-name="uni3d" unicode="&#x3d;" d="M53 394L53 500L538 500L538 394L53 394M53 204L53 311L538 311L538 204L53 204Z"  horiz-adv-x="572" vert-adv-y="1000"  />

      
      <glyph glyph-name="uni3e" unicode="&#x3e;" d="M53 216L387 353L53 508L53 625L538 383L538 313L53 99L53 216Z"  horiz-adv-x="572" vert-adv-y="1000"  />

      
      <glyph glyph-name="uni3f" unicode="&#x3f;" d="M127 237Q140 306 167 351Q194 396 254 437Q303 470 325 492Q347 514 347 546Q347 573 331.50 588.50Q316 604 282 604Q247 604 211.50 590Q176 576 132 555L87 663Q132 688 186.50 706Q241 724 304 724Q392 724 441.50 681Q491 638 491 562Q491 512 471.50 476.50Q452 441 419 413Q386 385 344 357Q314 338 297 321Q280 304 270 285Q260 266 253 237L127 237M153-13Q111-13 94 8.50Q77 30 77 56Q77 92 99.50 122.50Q122 153 177 153Q210 153 230 134.50Q250 116 250 82Q250 41 223.50 14Q197-13 153-13Z"  horiz-adv-x="459" vert-adv-y="1000"  />

      
      <glyph glyph-name="uni40" unicode="&#x40;" d="M391-91Q277-91 200-46.50Q123-2 84 74Q45 150 45 244Q45 358 83 445.50Q121 533 186.50 593Q252 653 336.50 683.50Q421 714 514 714Q669 714 757.50 634Q846 554 846 410Q846 351 830 295.50Q814 240 782.50 196Q751 152 706 126Q661 100 604 100Q565 100 536 117Q507 134 498 172L493 172Q472 139 443 119.50Q414 100 368 100Q312 100 274.50 135.50Q237 171 237 251Q237 302 254.50 350.50Q272 399 305 438Q338 477 385.50 500Q433 523 492 523Q546 523 584 515Q622 507 652 496L600 291Q595 269 591 253.50Q587 238 587 222Q587 204 595 196.50Q603 189 615 189Q642 189 664.50 208.50Q687 228 703.50 260Q720 292 729 330.50Q738 369 738 408Q738 507 680.50 564.50Q623 622 502 622Q403 622 324.50 577Q246 532 200 449.50Q154 367 154 255Q154 186 179 128.50Q204 71 259 36.50Q314 2 403 2Q464 2 515 13Q566 24 618 44L618-47Q571-66 514.50-78.50Q458-91 391-91M394 189Q433 189 457.50 225.50Q482 262 498 321L526 429Q517 431 508 432.50Q499 434 486 434Q451 434 425 416.50Q399 399 382 371.50Q365 344 356.50 313.50Q348 283 348 257Q348 219 362 204Q376 189 394 189Z"  horiz-adv-x="856" vert-adv-y="1000"  />

      
      <glyph glyph-name="uni41" unicode="&#x41;" d="M-60 0L314 714L496 714L568 0L423 0L411 170L180 170L96 0L-60 0M241 297L404 297L391 481Q389 510 387 540Q385 570 386 601L384 601Q374 574 362 547.50Q350 521 335 490L241 297Z"  horiz-adv-x="628" vert-adv-y="1000"  />

      
      <glyph glyph-name="uni42" unicode="&#x42;" d="M26 0L177 714L385 714Q487 714 549 677Q611 640 611 555Q611 482 570 435Q529 388 455 372L455 368Q504 355 533 320.50Q562 286 562 233Q562 152 525 100.50Q488 49 424 24.50Q360 0 281 0L26 0M266 431L339 431Q392 431 424.50 452.50Q457 474 457 523Q457 590 374 590L300 590L266 431M201 125L289 125Q344 125 377.50 152.50Q411 180 411 232Q411 270 389 290.50Q367 311 322 311L241 311L201 125Z"  horiz-adv-x="620" vert-adv-y="1000"  />

      
      <glyph glyph-name="uni43" unicode="&#x43;" d="M322-10Q192-10 126 66Q60 142 60 270Q60 333 74.50 397.50Q89 462 118.50 520.50Q148 579 193 625.50Q238 672 300 698.50Q362 725 442 725Q510 725 557.50 712.50Q605 700 652 674L594 552Q560 572 523.50 585.50Q487 599 442 599Q382 599 338.50 569Q295 539 267 491Q239 443 225.50 386.50Q212 330 212 278Q212 197 245.50 157Q279 117 352 117Q392 117 434 127.50Q476 138 517 155L517 28Q487 16 437 3Q387-10 322-10Z"  horiz-adv-x="612" vert-adv-y="1000"  />

      
      <glyph glyph-name="uni44" unicode="&#x44;" d="M26 0L177 714L370 714Q501 714 573.50 644.50Q646 575 646 444Q646 308 599.50 208.50Q553 109 463.50 54.50Q374 0 246 0L26 0M201 125L253 125Q335 125 388 168.50Q441 212 467 283Q493 354 493 436Q493 515 456.50 552.50Q420 590 356 590L300 590L201 125Z"  horiz-adv-x="677" vert-adv-y="1000"  />

      
      <glyph glyph-name="uni45" unicode="&#x45;" d="M26 0L177 714L576 714L550 590L300 590L267 433L500 433L473 309L240 309L201 125L451 125L425 0L26 0Z"  horiz-adv-x="542" vert-adv-y="1000"  />

      
      <glyph glyph-name="uni46" unicode="&#x46;" d="M26 0L177 714L574 714L548 590L300 590L261 406L492 406L465 282L234 282L175 0L26 0Z"  horiz-adv-x="531" vert-adv-y="1000"  />

      
      <glyph glyph-name="uni47" unicode="&#x47;" d="M324-10Q200-10 130 61Q60 132 60 268Q60 359 86.50 441.50Q113 524 166 587.50Q219 651 297 688Q375 725 478 725Q585 725 678 677L622 554Q586 574 550 585.50Q514 597 471 597Q405 597 356.50 569Q308 541 276 494.50Q244 448 228 392Q212 336 212 280Q212 200 246 158.50Q280 117 356 117Q381 117 399.50 120.50Q418 124 439 129L471 275L341 275L368 401L643 401L564 29Q515 12 460.50 1Q406-10 324-10Z"  horiz-adv-x="690" vert-adv-y="1000"  />

      
      <glyph glyph-name="uni48" unicode="&#x48;" d="M26 0L177 714L326 714L267 434L497 434L556 714L705 714L554 0L405 0L470 308L240 308L175 0L26 0Z"  horiz-adv-x="700" vert-adv-y="1000"  />

      
      <glyph glyph-name="uni49" unicode="&#x49;" d="M-29 0L-11 86L80 126L178 588L104 628L122 714L438 714L420 628L327 588L229 126L305 86L287 0L-29 0Z"  horiz-adv-x="383" vert-adv-y="1000"  />

      
      <glyph glyph-name="uni4a" unicode="&#x4a;" d="M-66-210Q-97-210-118-206Q-139-202-157-197L-157-73Q-140-77-120.50-80Q-101-83-77-83Q-29-83 1.50-53.50Q32-24 45 40L188 714L337 714L189 19Q163-104 101.50-157Q40-210-66-210Z"  horiz-adv-x="331" vert-adv-y="1000"  />

      
      <glyph glyph-name="uni4b" unicode="&#x4b;" d="M26 0L177 714L326 714L251 369L327 471L529 714L705 714L415 372L557 0L392 0L289 289L228 255L175 0L26 0Z"  horiz-adv-x="613" vert-adv-y="1000"  />

      
      <glyph glyph-name="uni4c" unicode="&#x4c;" d="M26 0L177 714L326 714L201 125L451 125L425 0L26 0Z"  horiz-adv-x="518" vert-adv-y="1000"  />

      
      <glyph glyph-name="uni4d" unicode="&#x4d;" d="M26 0L177 714L374 714L406 180L410 180L678 714L885 714L734 0L597 0L668 338Q675 372 684.50 410.50Q694 449 703.50 486.50Q713 524 721 553L717 553L439 0L302 0L272 553L268 553Q266 532 260 495.50Q254 459 246 416Q238 373 230 332L160 0L26 0Z"  horiz-adv-x="880" vert-adv-y="1000"  />

      
      <glyph glyph-name="uni4e" unicode="&#x4e;" d="M26 0L177 714L351 714L517 188L521 188Q524 209 529.50 242.50Q535 276 541.50 312Q548 348 554 376L626 714L760 714L609 0L442 0L268 540L263 540Q262 534 259 511.50Q256 489 251.50 458Q247 427 241.50 394.50Q236 362 231 336L160 0L26 0Z"  horiz-adv-x="755" vert-adv-y="1000"  />

      
      <glyph glyph-name="uni4f" unicode="&#x4f;" d="M325-10Q195-10 127.50 64.50Q60 139 60 262Q60 346 82.50 428Q105 510 151.50 577Q198 644 269 684.50Q340 725 438 725Q568 725 633.50 652Q699 579 699 458Q699 371 677 287.50Q655 204 609.50 136.50Q564 69 493.50 29.50Q423-10 325-10M336 117Q394 117 442 158.50Q490 200 518.50 276Q547 352 547 454Q547 520 516.50 559.50Q486 599 426 599Q380 599 340.50 572.50Q301 546 272.50 499Q244 452 228 391.50Q212 331 212 262Q212 191 245 154Q278 117 336 117Z"  horiz-adv-x="730" vert-adv-y="1000"  />

      
      <glyph glyph-name="uni50" unicode="&#x50;" d="M26 0L177 714L376 714Q463 714 515.50 688Q568 662 591.50 615Q615 568 615 506Q615 421 574 365Q533 309 462.50 281.50Q392 254 304 254L228 254L175 0L26 0M255 378L316 378Q383 378 424 411Q465 444 465 502Q465 590 370 590L300 590L255 378Z"  horiz-adv-x="610" vert-adv-y="1000"  />

      
      <glyph glyph-name="uni51" unicode="&#x51;" d="M425-170L338-10L325-10Q195-10 127.50 64.50Q60 139 60 262Q60 346 82.50 428Q105 510 151.50 577Q198 644 269 684.50Q340 725 438 725Q568 725 633.50 652Q699 579 699 458Q699 366 675 279.50Q651 193 601.50 125.50Q552 58 476 22L600-170L425-170M336 117Q394 117 442 158.50Q490 200 518.50 276Q547 352 547 454Q547 520 516.50 559.50Q486 599 426 599Q380 599 340.50 572.50Q301 546 272.50 499Q244 452 228 391.50Q212 331 212 262Q212 191 245 154Q278 117 336 117Z"  horiz-adv-x="730" vert-adv-y="1000"  />

      
      <glyph glyph-name="uni52" unicode="&#x52;" d="M26 0L177 714L352 714Q459 714 521.50 668Q584 622 584 518Q584 433 539 379.50Q494 326 427 303L554 0L392 0L291 274L233 274L175 0L26 0M259 397L297 397Q361 397 396.50 425Q432 453 432 510Q432 590 336 590L300 590L259 397Z"  horiz-adv-x="609" vert-adv-y="1000"  />

      
      <glyph glyph-name="uni53" unicode="&#x53;" d="M194-10Q140-10 95.50 2Q51 14 20 34L20 168Q64 143 107 129Q150 115 195 115Q244 115 277.50 134Q311 153 311 193Q311 234 287 257.50Q263 281 225 309Q195 330 167 357.50Q139 385 121 421.50Q103 458 103 507Q103 570 133 619Q163 668 218.50 696Q274 724 348 724Q404 724 451 712Q498 700 542 676L489 562Q412 598 348 598Q308 598 282 576.50Q256 555 256 518Q256 480 279 457.50Q302 435 344 407Q403 368 432.50 321Q462 274 462 211Q462 136 425.50 87Q389 38 328.50 14Q268-10 194-10Z"  horiz-adv-x="530" vert-adv-y="1000"  />

      
      <glyph glyph-name="uni54" unicode="&#x54;" d="M130 0L254 588L82 588L109 714L602 714L575 588L403 588L279 0L130 0Z"  horiz-adv-x="531" vert-adv-y="1000"  />

      
      <glyph glyph-name="uni55" unicode="&#x55;" d="M295-10Q184-10 126.50 45Q69 100 69 191Q69 207 70.50 226.50Q72 246 76 263L172 714L321 714L226 265Q218 228 218 204Q218 117 310 117Q375 117 407.50 154.50Q440 192 456 266L551 714L700 714L602 252Q586 176 550 117Q514 58 451.50 24Q389-10 295-10Z"  horiz-adv-x="691" vert-adv-y="1000"  />

      
      <glyph glyph-name="uni56" unicode="&#x56;" d="M152 0L90 714L234 714L259 284Q260 253 260 213.50Q260 174 258 146L262 146Q272 179 286 214.50Q300 250 316 284L526 714L680 714L315 0L152 0Z"  horiz-adv-x="590" vert-adv-y="1000"  />

      
      <glyph glyph-name="uni57" unicode="&#x57;" d="M112 0L90 714L230 714L233 324Q233 286 231.50 240Q230 194 226 155L230 155Q244 194 261 238.50Q278 283 291 314L471 714L603 714L613 314Q614 297 613.50 270Q613 243 612 212.50Q611 182 609 155L613 155Q626 196 644 243.50Q662 291 676 325L837 714L988 714L672 0L503 0L495 325Q494 368 493.50 397Q493 426 493 449Q493 472 494 497L490 497Q464 417 435 351L277 0L112 0Z"  horiz-adv-x="894" vert-adv-y="1000"  />

      
      <glyph glyph-name="uni58" unicode="&#x58;" d="M-57 0L224 373L108 714L264 714L339 461L516 714L684 714L418 360L549 0L387 0L303 265L110 0L-57 0Z"  horiz-adv-x="606" vert-adv-y="1000"  />

      
      <glyph glyph-name="uni59" unicode="&#x59;" d="M148 0L206 273L91 714L243 714L306 425L489 714L656 714L354 273L296 0L148 0Z"  horiz-adv-x="564" vert-adv-y="1000"  />

      
      <glyph glyph-name="uni5a" unicode="&#x5a;" d="M-30 0L-11 98L368 589L103 589L129 714L586 714L566 615L184 125L475 125L449 0L-30 0Z"  horiz-adv-x="536" vert-adv-y="1000"  />

      
      <glyph glyph-name="uni5b" unicode="&#x5b;" d="M-18-158L168 714L399 714L377 611L272 611L130-55L235-55L213-158L-18-158Z"  horiz-adv-x="331" vert-adv-y="1000"  />

      
      <glyph glyph-name="uni5c" unicode="&#x5c;" d="M214 0L108 714L235 714L344 0L214 0Z"  horiz-adv-x="421" vert-adv-y="1000"  />

      
      <glyph glyph-name="uni5d" unicode="&#x5d;" d="M-67-158L-45-55L59-55L201 611L96 611L118 714L349 714L163-158L-67-158Z"  horiz-adv-x="331" vert-adv-y="1000"  />

      
      <glyph glyph-name="uni5e" unicode="&#x5e;" d="M17 254L319 718L391 718L526 254L417 254L332 563L136 254L17 254Z"  horiz-adv-x="551" vert-adv-y="1000"  />

      
      <glyph glyph-name="uni5f" unicode="&#x5f;" d="M-91-158L-76-90L325-90L310-158L-91-158Z"  horiz-adv-x="400" vert-adv-y="1000"  />

      
      <glyph glyph-name="uni60" unicode="&#x60;" d="M263 606Q242 626 219 652Q196 678 176 705.50Q156 733 145 756L145 766L297 766Q305 732 319.50 693.50Q334 655 353 618L353 606L263 606Z"  horiz-adv-x="322" vert-adv-y="1000"  />

      
      <glyph glyph-name="uni61" unicode="&#x61;" d="M198-10Q158-10 123 9.50Q88 29 66 72.50Q44 116 44 188Q44 255 62 320Q80 385 113 438.50Q146 492 192.50 524Q239 556 297 556Q349 556 381.50 534Q414 512 432 476L436 476L464 546L577 546L461 0L351 0L358 71L354 71Q325 35 287.50 12.50Q250-10 198-10M256 109Q286 109 312 133Q338 157 356.50 194.50Q375 232 383 275Q390 311 390 357Q390 392 372 414.50Q354 437 322 437Q295 437 271.50 415.50Q248 394 230.50 359Q213 324 203 281Q193 238 193 195Q193 109 256 109Z"  horiz-adv-x="594" vert-adv-y="1000"  />

      
      <glyph glyph-name="uni62" unicode="&#x62;" d="M298-10Q246-10 213.50 12Q181 34 163 70L159 70L131 0L18 0L179 760L326 760L296 619Q292 599 285 572.50Q278 546 270 519Q262 492 255 473L259 473Q285 506 316 531Q347 556 397 556Q436 556 471.50 536.50Q507 517 529 473.50Q551 430 551 358Q551 291 533 226Q515 161 482 107.50Q449 54 402.50 22Q356-10 298-10M273 109Q300 109 323.50 130.50Q347 152 364.50 187Q382 222 392 265Q402 308 402 351Q402 437 338 437Q302 437 277 411Q252 385 236 345.50Q220 306 212.50 265Q205 224 205 195Q205 156 223.50 132.50Q242 109 273 109Z"  horiz-adv-x="595" vert-adv-y="1000"  />

      
      <glyph glyph-name="uni63" unicode="&#x63;" d="M247-10Q190-10 144 10Q98 30 71 74.50Q44 119 44 191Q44 264 63 330Q82 396 119 447Q156 498 210 527Q264 556 333 556Q382 556 420.50 547Q459 538 493 521L448 409Q422 420 396.50 428.50Q371 437 339 437Q292 437 259.50 402.50Q227 368 210 314Q193 260 193 203Q193 156 215 132.50Q237 109 277 109Q314 109 345.50 120.50Q377 132 411 149L411 29Q376 11 337 0.50Q298-10 247-10Z"  horiz-adv-x="483" vert-adv-y="1000"  />

      
      <glyph glyph-name="uni64" unicode="&#x64;" d="M198-10Q158-10 123 9.50Q88 29 66 72.50Q44 116 44 189Q44 255 62 320.50Q80 386 113 439Q146 492 192.50 524Q239 556 297 556Q346 556 374 533Q402 510 421 476L425 476Q425 479 426.50 497.50Q428 516 431 540Q434 564 438 585L475 760L622 760L461 0L349 0L358 71L354 71Q325 35 287.50 12.50Q250-10 198-10M260 109Q294 109 319 135.50Q344 162 359.50 201.50Q375 241 382.50 281.50Q390 322 390 351Q390 390 372 413.50Q354 437 322 437Q295 437 271.50 415.50Q248 394 230.50 359Q213 324 203 281Q193 238 193 195Q193 109 260 109Z"  horiz-adv-x="594" vert-adv-y="1000"  />

      
      <glyph glyph-name="uni65" unicode="&#x65;" d="M260-10Q164-10 104 42Q44 94 44 201Q44 270 63.50 333.50Q83 397 121.50 447Q160 497 217 526.50Q274 556 349 556Q440 556 486 514Q532 472 532 407Q532 321 454.50 269Q377 217 218 217L193 217Q192 211 192 206.50Q192 202 192 197Q192 153 217 127Q242 101 289 101Q332 101 367 110.50Q402 120 450 143L450 32Q407 11 362.50 0.50Q318-10 260-10M209 316L231 316Q316 316 353.50 342.50Q391 369 391 404Q391 450 340 450Q312 450 285.50 433Q259 416 238.50 386Q218 356 209 316Z"  horiz-adv-x="557" vert-adv-y="1000"  />

      
      <glyph glyph-name="uni66" unicode="&#x66;" d="M-22-240Q-73-240-107-228L-107-110Q-77-120-51-120Q-21-120 1.50-100Q24-80 33-37L133 434L53 434L68 505L157 546L166 587Q188 686 237.50 725.50Q287 765 367 765Q401 765 429.50 758.50Q458 752 482 741L443 632Q429 638 413.50 642.50Q398 647 378 647Q350 647 333 627.50Q316 608 310 576L304 546L411 546L387 434L280 434L175-59Q164-109 141.50-150Q119-191 79.50-215.50Q40-240-22-240Z"  horiz-adv-x="373" vert-adv-y="1000"  />

      
      <glyph glyph-name="uni67" unicode="&#x67;" d="M191-240Q130-240 90-231Q50-222 13-205L13-77Q51-97 93.50-108Q136-119 183-119Q234-119 266-95.50Q298-72 312-22L316-7Q320 10 326 28.50Q332 47 336 60Q340 73 340 73L336 73Q310 39 276 14.50Q242-10 191-10Q152-10 118.50 11Q85 32 64.50 75.50Q44 119 44 188Q44 255 62 320Q80 385 113 438.50Q146 492 192 524Q238 556 294 556Q347 556 377.50 534.50Q408 513 432 476L436 476L464 546L577 546L458-13Q440-99 402.50-148.50Q365-198 311.50-219Q258-240 191-240M262 109Q293 109 316.50 132.50Q340 156 356.50 193Q373 230 381.50 272Q390 314 390 351Q390 390 372 413.50Q354 437 323 437Q295 437 271.50 415.50Q248 394 230.50 359Q213 324 203 281Q193 238 193 195Q193 152 211.50 130.50Q230 109 262 109Z"  horiz-adv-x="594" vert-adv-y="1000"  />

      
      <glyph glyph-name="uni68" unicode="&#x68;" d="M18 0L179 760L326 760L298 628Q293 605 286 578Q279 551 272 527Q265 503 260 488Q255 473 255 473L259 473Q289 510 326 533Q363 556 412 556Q482 556 517.50 513.50Q553 471 553 399Q553 363 542 311L477 0L330 0L397 319Q405 354 405 377Q405 437 352 437Q318 437 291.50 408.50Q265 380 245.50 332Q226 284 213 226L165 0L18 0Z"  horiz-adv-x="604" vert-adv-y="1000"  />

      
      <glyph glyph-name="uni69" unicode="&#x69;" d="M231 614Q200 614 178.50 627.50Q157 641 157 674Q157 716 180.50 738Q204 760 246 760Q275 760 297 747Q319 734 319 701Q319 662 297.50 638Q276 614 231 614M18 0L134 546L281 546L165 0L18 0Z"  horiz-adv-x="297" vert-adv-y="1000"  />

      
      <glyph glyph-name="uni6a" unicode="&#x6a;" d="M232 614Q200 614 179 627.50Q158 641 158 674Q158 716 181.50 738Q205 760 247 760Q276 760 298 747Q320 734 320 701Q320 662 298.50 638Q277 614 232 614M-44-240Q-95-240-129-228L-129-110Q-99-120-73-120Q-43-120-20.50-100Q2-80 11-37L135 546L282 546L153-59Q142-109 119.50-150Q97-191 57.50-215.50Q18-240-44-240Z"  horiz-adv-x="297" vert-adv-y="1000"  />

      
      <glyph glyph-name="uni6b" unicode="&#x6b;" d="M18 0L179 760L326 760L254 421Q249 396 238.50 363Q228 330 224 314L228 314L449 546L617 546L374 300L513 0L349 0L260 205L201 170L165 0L18 0Z"  horiz-adv-x="568" vert-adv-y="1000"  />

      
      <glyph glyph-name="uni6c" unicode="&#x6c;" d="M18 0L179 760L326 760L165 0L18 0Z"  horiz-adv-x="297" vert-adv-y="1000"  />

      
      <glyph glyph-name="uni6d" unicode="&#x6d;" d="M18 0L134 546L246 546L236 445L240 445Q272 494 313.50 525Q355 556 412 556Q468 556 499 526.50Q530 497 540 445L544 445Q575 494 618 525Q661 556 718 556Q786 556 820 513.50Q854 471 854 399Q854 363 843 311L778 0L631 0L698 319Q706 354 706 377Q706 437 658 437Q624 437 597.50 409Q571 381 551 333.50Q531 286 519 227L472 0L325 0L392 319Q400 354 400 377Q400 437 352 437Q318 437 291.50 408.50Q265 380 245.50 332Q226 284 213 226L165 0L18 0Z"  horiz-adv-x="905" vert-adv-y="1000"  />

      
      <glyph glyph-name="uni6e" unicode="&#x6e;" d="M18 0L134 546L246 546L236 445L240 445Q272 494 313.50 525Q355 556 412 556Q482 556 517.50 513.50Q553 471 553 399Q553 363 542 311L477 0L330 0L397 319Q405 354 405 377Q405 437 352 437Q318 437 291.50 408.50Q265 380 245.50 332Q226 284 213 226L165 0L18 0Z"  horiz-adv-x="604" vert-adv-y="1000"  />

      
      <glyph glyph-name="uni6f" unicode="&#x6f;" d="M253-10Q192-10 144.50 15.50Q97 41 70.50 88Q44 135 44 200Q44 272 62 336.50Q80 401 116 450.50Q152 500 206.50 528Q261 556 334 556Q429 556 485 499Q541 442 541 340Q541 271 524 208Q507 145 471.50 96Q436 47 381.50 18.50Q327-10 253-10M265 110Q306 110 334.50 143Q363 176 378 228.50Q393 281 393 340Q393 381 377.50 408.50Q362 436 323 436Q290 436 265 413.50Q240 391 224 355Q208 319 200 278Q192 237 192 200Q192 110 265 110Z"  horiz-adv-x="585" vert-adv-y="1000"  />

      
      <glyph glyph-name="uni70" unicode="&#x70;" d="M-33-240L134 546L246 546L238 463L242 463Q268 498 306 527Q344 556 397 556Q436 556 471.50 536.50Q507 517 529 473.50Q551 430 551 357Q551 291 533 225.50Q515 160 482 107Q449 54 402.50 22Q356-10 298-10Q248-10 221 13Q194 36 174 70L170 70Q167 30 162-3Q157-36 149-74L114-240L-33-240M273 109Q300 109 323.50 130.50Q347 152 364.50 187Q382 222 392 265Q402 308 402 351Q402 437 338 437Q302 437 277 411Q252 385 236 346Q220 307 212.50 266Q205 225 205 195Q205 156 223.50 132.50Q242 109 273 109Z"  horiz-adv-x="595" vert-adv-y="1000"  />

      
      <glyph glyph-name="uni71" unicode="&#x71;" d="M263-240L299-75Q303-57 309.50-32Q316-7 323 17Q330 41 335 57Q340 73 340 73L336 73Q310 39 276 14.50Q242-10 191-10Q155-10 121.50 9.50Q88 29 66 72.50Q44 116 44 188Q44 255 62 320Q80 385 113 438.50Q146 492 192.50 524Q239 556 297 556Q346 556 377 535Q408 514 432 476L436 476L464 546L577 546L410-240L263-240M261 109Q296 109 320.50 135.50Q345 162 360 201.50Q375 241 382.50 281.50Q390 322 390 351Q390 390 372 413.50Q354 437 322 437Q295 437 271.50 415.50Q248 394 230.50 359Q213 324 203 281Q193 238 193 195Q193 152 211 130.50Q229 109 261 109Z"  horiz-adv-x="594" vert-adv-y="1000"  />

      
      <glyph glyph-name="uni72" unicode="&#x72;" d="M18 0L134 546L246 546L236 445L241 445Q274 497 316 526.50Q358 556 411 556Q423 556 436.50 554.50Q450 553 458 551L426 409Q418 412 405 414.50Q392 417 377 417Q322 417 278.50 373.50Q235 330 217 244L165 0L18 0Z"  horiz-adv-x="421" vert-adv-y="1000"  />

      
      <glyph glyph-name="uni73" unicode="&#x73;" d="M175-10Q122-10 83.50-2.50Q45 5 11 22L11 143Q48 122 87 110.50Q126 99 167 99Q202 99 229 113.50Q256 128 256 158Q256 178 240 194Q224 210 174 238Q123 266 95.50 298Q68 330 68 382Q68 467 123 511.50Q178 556 276 556Q323 556 367 545.50Q411 535 453 510L405 405Q376 422 343.50 434Q311 446 279 446Q255 446 236 434.50Q217 423 217 400Q217 380 233 366Q249 352 291 330Q340 304 372.50 270Q405 236 405 180Q405 86 342.50 38Q280-10 175-10Z"  horiz-adv-x="473" vert-adv-y="1000"  />

      
      <glyph glyph-name="uni74" unicode="&#x74;" d="M200-10Q136-10 97 17.50Q58 45 58 116Q58 141 64 171L120 434L46 434L60 506L156 547L220 662L315 662L291 546L429 546L405 434L267 434L211 171Q208 156 208 145Q208 126 220 117.50Q232 109 251 109Q271 109 289.50 113.50Q308 118 330 126L330 16Q307 5 273.50-2.50Q240-10 200-10Z"  horiz-adv-x="410" vert-adv-y="1000"  />

      
      <glyph glyph-name="uni75" unicode="&#x75;" d="M193-10Q122-10 88 32.50Q54 75 54 147Q54 165 57 193.50Q60 222 66 251L128 546L275 546L208 227Q200 192 200 169Q200 109 253 109Q286 109 313 137.50Q340 166 360 214Q380 262 392 320L440 546L587 546L471 0L359 0L369 101L364 101Q332 52 291 21Q250-10 193-10Z"  horiz-adv-x="604" vert-adv-y="1000"  />

      
      <glyph glyph-name="uni76" unicode="&#x76;" d="M117 0L50 546L194 546L216 260Q218 241 218.50 207.50Q219 174 219 147L224 147Q233 172 245 204.50Q257 237 267 256L412 546L570 546L275 0L117 0Z"  horiz-adv-x="512" vert-adv-y="1000"  />

      
      <glyph glyph-name="uni77" unicode="&#x77;" d="M86 0L61 546L198 546L200 304Q200 264 199.50 224.50Q199 185 195 139L199 139Q206 164 217 194.50Q228 225 237.50 250Q247 275 251 284L364 546L524 546L524 284Q524 250 523.50 215Q523 180 519 139L524 139Q531 162 541.50 193Q552 224 563 254Q574 284 582 304L689 546L839 546L580 0L419 0L416 254Q416 274 416.50 304Q417 334 418.50 365Q420 396 421 420L415 420Q406 396 396 366.50Q386 337 376 309.50Q366 282 358 264L244 0L86 0Z"  horiz-adv-x="788" vert-adv-y="1000"  />

      
      <glyph glyph-name="uni78" unicode="&#x78;" d="M-49 0L185 280L75 546L232 546L288 383L407 546L580 546L352 272L471 0L312 0L251 167L122 0L-49 0Z"  horiz-adv-x="531" vert-adv-y="1000"  />

      
      <glyph glyph-name="uni79" unicode="&#x79;" d="M3-240Q-23-240-40-237.50Q-57-235-69-231L-69-114Q-56-116-42.50-118Q-29-120-12-120Q34-120 64-93Q94-66 117-24L130 0L50 546L194 546L221 293Q225 259 226 219Q227 179 227 150L231 150Q241 175 252.50 208.50Q264 242 284 283L411 546L571 546L239-78Q195-161 135.50-200.50Q76-240 3-240Z"  horiz-adv-x="519" vert-adv-y="1000"  />

      
      <glyph glyph-name="uni7a" unicode="&#x7a;" d="M-23 0L-6 88L275 432L81 432L106 546L472 546L451 448L175 114L389 114L365 0L-23 0Z"  horiz-adv-x="455" vert-adv-y="1000"  />

      
      <glyph glyph-name="uni7b" unicode="&#x7b;" d="M231-158Q141-158 103-124Q65-90 65-37Q65-20 67-5Q69 10 72 24L91 114Q93 125 95.50 136Q98 147 98 156Q98 224-4 224L18 336Q77 336 111.50 356.50Q146 377 157 424L187 563Q204 638 246 676Q288 714 383 714L424 714L400 604Q363 603 340.50 590Q318 577 309 535L277 390Q265 336 230.50 309Q196 282 142 275L142 271Q183 258 203.50 230.50Q224 203 224 165Q224 152 222 139Q220 126 217 110L199 23Q196 8 196-2Q196-28 212-38Q228-48 257-48L257-158L231-158Z"  horiz-adv-x="355" vert-adv-y="1000"  />

      
      <glyph glyph-name="uni7c" unicode="&#x7c;" d="M222-227L222 757L329 757L329-227L222-227Z"  horiz-adv-x="551" vert-adv-y="1000"  />

      
      <glyph glyph-name="uni7d" unicode="&#x7d;" d="M-49-158L-49-48Q-12-47 13-34Q38-21 47 21L79 166Q91 220 125.50 247Q160 274 214 281L214 285Q173 298 152.50 325.50Q132 353 132 391Q132 404 134 417Q136 430 139 446L157 533Q160 548 160 558Q160 584 142 594Q124 604 89 604L109 714L125 714Q215 714 253 680Q291 646 291 593Q291 576 289 561Q287 546 284 532L265 442Q263 431 260.50 420Q258 409 258 400Q258 332 360 332L338 220Q279 220 244.50 199.50Q210 179 199 132L169-7Q152-82 110-120Q68-158-27-158L-49-158Z"  horiz-adv-x="355" vert-adv-y="1000"  />

      
      <glyph glyph-name="uni7e" unicode="&#x7e;" d="M278 301Q241 317 215.50 322.50Q190 328 167 328Q138 328 108 311Q78 294 53 269L53 382Q103 435 178 435Q207 435 236.50 429.50Q266 424 313 404Q350 388 376 382.50Q402 377 424 377Q452 377 482.50 394Q513 411 538 436L538 323Q488 270 413 270Q384 270 354.50 276Q325 282 278 301Z"  horiz-adv-x="572" vert-adv-y="1000"  />

      
      <glyph glyph-name="unia1" unicode="&#xa1;" d="M168 380Q135 380 115 398.50Q95 417 95 451Q95 492 121.50 519Q148 546 192 546Q234 546 251 524.50Q268 503 268 477Q268 441 245.50 410.50Q223 380 168 380M-36-181L89 296L207 296L130-181L-36-181Z"  horiz-adv-x="286" vert-adv-y="1000"  />

      
      <glyph glyph-name="unia2" unicode="&#xa2;" d="M189-10L213 93Q154 109 117 154.50Q80 200 80 285Q80 376 109 454Q138 532 193 584Q248 636 328 647L344 724L436 724L419 647Q450 643 477 635Q504 627 529 615L484 503Q458 514 432.50 522.50Q407 531 375 531Q328 531 295.50 496.50Q263 462 246 408Q229 354 229 297Q229 250 251 226.50Q273 203 313 203Q350 203 381.50 214.50Q413 226 447 243L447 123Q416 106 380.50 96Q345 86 301 84L281-10L189-10Z"  horiz-adv-x="551" vert-adv-y="1000"  />

      
      <glyph glyph-name="unia3" unicode="&#xa3;" d="M-6 0L18 120Q62 131 93 161Q124 191 137 249L148 300L54 300L76 407L170 407L194 528Q214 622 272 673.50Q330 725 426 725Q479 725 525.50 712.50Q572 700 606 683L551 570Q522 584 492 593.50Q462 603 435 603Q398 603 375 583.50Q352 564 342 519L319 407L465 407L443 300L297 300L288 259Q278 210 251 177Q224 144 186 127L506 127L479 0L-6 0Z"  horiz-adv-x="551" vert-adv-y="1000"  />

      
      <glyph glyph-name="unia4" unicode="&#xa4;" d="M444 124L382 185Q361 174 336.50 167Q312 160 286 160Q230 160 189 185L128 125L57 196L119 257Q93 301 93 353Q93 379 100 403.50Q107 428 119 449L56 511L128 583L190 521Q211 533 236 540Q261 547 286 547Q337 547 382 520L444 583L517 513L454 450Q466 430 473 404.50Q480 379 480 353Q480 300 454 256L515 195L444 124M286 261Q325 261 352.50 288Q380 315 380 353Q380 392 352.50 419Q325 446 286 446Q248 446 221 419Q194 392 194 353Q194 315 221 288Q248 261 286 261Z"  horiz-adv-x="551" vert-adv-y="1000"  />

      
      <glyph glyph-name="unia5" unicode="&#xa5;" d="M143 0L166 108L43 108L61 195L184 195L198 262L75 262L94 349L190 349L96 714L241 714L297 426L478 714L630 714L383 349L482 349L463 262L340 262L326 195L449 195L431 108L308 108L285 0L143 0Z"  horiz-adv-x="551" vert-adv-y="1000"  />

      
      <glyph glyph-name="unia6" unicode="&#xa6;" d="M222 359L222 757L329 757L329 359L222 359M222-227L222 171L329 171L329-227L222-227Z"  horiz-adv-x="551" vert-adv-y="1000"  />

      
      <glyph glyph-name="unia7" unicode="&#xa7;" d="M174-10Q120-10 79.50 0Q39 10 10 27L10 136Q44 115 87.50 100Q131 85 178 85Q226 85 248.50 102Q271 119 271 147Q271 167 253.50 183.50Q236 200 193 221Q136 249 104.50 284.50Q73 320 73 369Q73 418 100 453Q127 488 172 516Q152 532 138 557Q124 582 124 610Q124 660 151 694.50Q178 729 225.50 747Q273 765 334 765Q383 765 423.50 753.50Q464 742 502 722L462 628Q435 644 401 656.50Q367 669 324 669Q293 669 273.50 657Q254 645 254 617Q254 597 274 581Q294 565 336 546Q454 494 454 400Q454 344 425 310Q396 276 360 254Q379 237 391.50 212.50Q404 188 404 159Q404 104 374.50 66.50Q345 29 293.50 9.50Q242-10 174-10M283 299Q302 311 317.50 332Q333 353 333 382Q333 409 310.50 430.50Q288 452 247 468Q222 456 207 434Q192 412 192 387Q192 362 212.50 342Q233 322 283 299Z"  horiz-adv-x="486" vert-adv-y="1000"  />

      
      <glyph glyph-name="unia8" unicode="&#xa8;" d="M452 621Q425 621 407.50 633Q390 645 390 675Q390 712 409.50 732Q429 752 464 752Q489 752 507 740.50Q525 729 525 699Q525 664 507.50 642.50Q490 621 452 621M265 621Q238 621 220.50 633Q203 645 203 675Q203 712 222.50 732Q242 752 277 752Q302 752 320 740.50Q338 729 338 699Q338 664 320 642.50Q302 621 265 621Z"  horiz-adv-x="554" vert-adv-y="1000"  />

      
      <glyph glyph-name="unia9" unicode="&#xa9;" d="M416-10Q336-10 269 17Q202 44 152.50 93.50Q103 143 76 210Q49 277 49 357Q49 433 76.50 499.50Q104 566 154 616.50Q204 667 271 695.50Q338 724 416 724Q492 724 558.50 697Q625 670 675.50 620.50Q726 571 754.50 504Q783 437 783 357Q783 277 756 210Q729 143 679.50 93.50Q630 44 563 17Q496-10 416-10M416 54Q498 54 565.50 93Q633 132 673 200Q713 268 713 357Q713 420 690.50 475Q668 530 628 572Q588 614 533.50 637.50Q479 661 416 661Q330 661 262.50 622Q195 583 156 514.50Q117 446 117 357Q117 268 155.50 200Q194 132 261 93Q328 54 416 54M431 128Q329 128 278.50 191Q228 254 228 357Q228 424 252 475.50Q276 527 322 556.50Q368 586 435 586Q500 586 558 556L529 489Q479 515 436 515Q377 515 344.50 472.50Q312 430 312 357Q312 280 340.50 239Q369 198 435 198Q458 198 486.50 204.50Q515 211 540 221L540 152Q516 142 491 135Q466 128 431 128Z"  horiz-adv-x="832" vert-adv-y="1000"  />

      
      <glyph glyph-name="uniaa" unicode="&#xaa;" d="M180 365Q152 365 128 377.50Q104 390 89 419Q74 448 74 496Q74 529 83.50 567.50Q93 606 113 640.50Q133 675 165.50 697.50Q198 720 243 720Q274 720 295 707Q316 694 330 670L334 670L353 714L428 714L351 371L279 371L283 416L279 416Q261 393 237 379Q213 365 180 365M216 439Q238 439 254.50 455.50Q271 472 281.50 497Q292 522 297 548Q302 574 302 593Q302 616 292 630.50Q282 645 259 645Q233 645 214 621.50Q195 598 184.50 563Q174 528 174 493Q174 439 216 439Z"  horiz-adv-x="377" vert-adv-y="1000"  />

      
      <glyph glyph-name="uniab" unicode="&#xab;" d="M134 44L35 269L35 278L231 504L324 428L188 265L254 94L134 44M372 44L273 269L273 278L469 504L562 428L426 265L492 94L372 44Z"  horiz-adv-x="562" vert-adv-y="1000"  />

      
      <glyph glyph-name="uniac" unicode="&#xac;" d="M538 406L538 121L431 121L431 299L53 299L53 406L538 406Z"  horiz-adv-x="572" vert-adv-y="1000"  />

      
      <glyph glyph-name="uniad" unicode="&#xad;" d="M20 207L46 329L302 329L276 207L20 207Z"  horiz-adv-x="322" vert-adv-y="1000"  />

      
      <glyph glyph-name="uniae" unicode="&#xae;" d="M416-10Q336-10 269 17Q202 44 152.50 93.50Q103 143 76 210Q49 277 49 357Q49 433 76.50 499.50Q104 566 154 616.50Q204 667 271 695.50Q338 724 416 724Q492 724 558.50 697Q625 670 675.50 620.50Q726 571 754.50 504Q783 437 783 357Q783 277 756 210Q729 143 679.50 93.50Q630 44 563 17Q496-10 416-10M416 54Q498 54 565.50 93Q633 132 673 200Q713 268 713 357Q713 420 690.50 475Q668 530 628 572Q588 614 533.50 637.50Q479 661 416 661Q330 661 262.50 622Q195 583 156 514.50Q117 446 117 357Q117 268 155.50 200Q194 132 261 93Q328 54 416 54M274 138L274 580L407 580Q489 580 527 545Q565 510 565 446Q565 399 541 371.50Q517 344 487 332L603 138L512 138L417 306L355 306L355 138L274 138M355 373L405 373Q444 373 463.50 392.50Q483 412 483 444Q483 479 465.50 495Q448 511 404 511L355 511L355 373Z"  horiz-adv-x="832" vert-adv-y="1000"  />

      
      <glyph glyph-name="uniaf" unicode="&#xaf;" d="M87 760L109 858L615 858L593 760L87 760Z"  horiz-adv-x="500" vert-adv-y="1000"  />

      
      <glyph glyph-name="unib0" unicode="&#xb0;" d="M214 387Q162 387 123 408.50Q84 430 61.50 468Q39 506 39 555Q39 604 61.50 642Q84 680 123 702Q162 724 214 724Q266 724 305 702.50Q344 681 366 642.50Q388 604 388 555Q388 506 366 468Q344 430 305 408.50Q266 387 214 387M214 480Q246 480 268 500Q290 520 290 555Q290 591 268 611.50Q246 632 214 632Q182 632 160 611.50Q138 591 138 555Q138 520 160 500Q182 480 214 480Z"  horiz-adv-x="428" vert-adv-y="1000"  />

      
      <glyph glyph-name="unib1" unicode="&#xb1;" d="M349 436L538 436L538 329L349 329L349 141L242 141L242 329L53 329L53 436L242 436L242 626L349 626L349 436M53 0L53 107L538 107L538 0L53 0Z"  horiz-adv-x="572" vert-adv-y="1000"  />

      
      <glyph glyph-name="unib2" unicode="&#xb2;" d="M56 415L73 496L206 603Q254 642 279 666.50Q304 691 304 719Q304 739 291.50 749Q279 759 262 759Q220 759 170 719L121 796Q157 824 197.50 838.50Q238 853 291 853Q352 853 387.50 822Q423 791 423 744Q423 702 407.50 673Q392 644 361 618Q330 592 286 559L223 513L392 513L372 415L56 415Z"  horiz-adv-x="379" vert-adv-y="1000"  />

      
      <glyph glyph-name="unib3" unicode="&#xb3;" d="M202 407Q165 407 130.50 414.50Q96 422 72 434L72 528Q100 512 131 502.50Q162 493 196 493Q231 493 256 507.50Q281 522 281 551Q281 569 268.50 581.50Q256 594 225 594L163 594L180 672L224 672Q264 672 288 685.50Q312 699 312 727Q312 746 299.50 756Q287 766 265 766Q242 766 219 757.50Q196 749 173 734L133 807Q168 830 205 841Q242 852 286 852Q336 852 366.50 837.50Q397 823 410.50 799.50Q424 776 424 749Q424 698 393 672.50Q362 647 318 636L318 632Q358 623 375.50 600.50Q393 578 393 547Q393 498 365.50 467Q338 436 294 421.50Q250 407 202 407Z"  horiz-adv-x="379" vert-adv-y="1000"  />

      
      <glyph glyph-name="unib4" unicode="&#xb4;" d="M113 606L113 618Q138 646 168 688.50Q198 731 221 766L385 766L385 758Q374 744 353.50 724Q333 704 308 682Q283 660 258.50 640Q234 620 215 606L113 606Z"  horiz-adv-x="322" vert-adv-y="1000"  />

      
      <glyph glyph-name="uni03BC" unicode="&#x03BC;" d="M-33-240L134 546L281 546L215 231Q207 194 207 170Q207 141 222.50 125Q238 109 261 109Q296 109 322.50 138Q349 167 367.50 214.50Q386 262 398 317L446 546L593 546L477 0L367 0L376 86L371 86Q344 40 312 15Q280-10 241-10Q216-10 197.50 0Q179 10 169 23L164 23Q161 0 157-29.50Q153-59 148-84L115-240L-33-240Z"  horiz-adv-x="610" vert-adv-y="1000"  />

      
      <glyph glyph-name="unib6" unicode="&#xb6;" d="M348-127L348 273Q318 264 277 264Q215 264 169 287Q123 310 97.50 364Q72 418 72 509Q72 604 99.50 659Q127 714 176.50 737Q226 760 292 760L587 760L587-127L508-127L508 662L427 662L427-127L348-127Z"  horiz-adv-x="655" vert-adv-y="1000"  />

      
      <glyph glyph-name="unib7" unicode="&#xb7;" d="M140 270Q98 270 81 291.50Q64 313 64 339Q64 375 86.50 405.50Q109 436 164 436Q197 436 217 417.50Q237 399 237 365Q237 324 210.50 297Q184 270 140 270Z"  horiz-adv-x="285" vert-adv-y="1000"  />

      
      <glyph glyph-name="unib8" unicode="&#xb8;" d="M-27-240Q-50-240-70-236.50Q-90-233-101-229L-101-147Q-90-151-73.50-154.50Q-57-158-40-158Q10-158 10-118Q10-102-5.50-91Q-21-80-59-75L-12 0L78 0L59-35Q88-45 108-65Q128-85 128-122Q128-172 91.50-206Q55-240-27-240Z"  horiz-adv-x="205" vert-adv-y="1000"  />

      
      <glyph glyph-name="unib9" unicode="&#xb9;" d="M176 415L217 609Q224 640 231.50 666.50Q239 693 244 710Q235 702 223.50 694Q212 686 205 681L141 641L91 722L286 843L387 843L296 415L176 415Z"  horiz-adv-x="379" vert-adv-y="1000"  />

      
      <glyph glyph-name="uniba" unicode="&#xba;" d="M215 365Q150 365 116.50 402Q83 439 83 505Q83 563 104 612Q125 661 166.50 690.50Q208 720 269 720Q339 720 369 680.50Q399 641 399 581Q399 549 390 511.50Q381 474 360.50 440.50Q340 407 304.50 386Q269 365 215 365M224 445Q248 445 264 467.50Q280 490 288 523Q296 556 296 588Q296 640 259 640Q235 640 218.50 617Q202 594 193.50 561Q185 528 185 499Q185 445 224 445Z"  horiz-adv-x="368" vert-adv-y="1000"  />

      
      <glyph glyph-name="unibb" unicode="&#xbb;" d="M331 44L238 120L374 283L308 454L428 504L527 279L527 270L331 44M93 44L0 120L136 283L70 454L190 504L289 279L289 270L93 44Z"  horiz-adv-x="562" vert-adv-y="1000"  />

      
      <glyph glyph-name="unibc" unicode="&#xbc;" d="M107 0L638 714L753 714L224 0L107 0M156 285L197 479Q204 510 211.50 536.50Q219 563 224 580Q215 572 203.50 564Q192 556 185 551L121 511L71 592L266 713L367 713L276 285L156 285M591 1L607 75L425 75L440 160L672 432L799 432L740 157L798 157L781 75L723 75L707 1L591 1M539 157L624 157L644 237Q649 257 652.50 269.50Q656 282 663 306Q654 292 641.50 277Q629 262 621 252L539 157Z"  horiz-adv-x="834" vert-adv-y="1000"  />

      
      <glyph glyph-name="unibd" unicode="&#xbd;" d="M105 0L636 714L751 714L222 0L105 0M156 285L197 479Q204 510 211.50 536.50Q219 563 224 580Q215 572 203.50 564Q192 556 185 551L121 511L71 592L266 713L367 713L276 285L156 285M482-1L499 80L632 187Q680 226 705 250.50Q730 275 730 303Q730 323 717.50 333Q705 343 688 343Q646 343 596 303L547 380Q583 408 623.50 422.50Q664 437 717 437Q778 437 813.50 406Q849 375 849 328Q849 286 833.50 257Q818 228 787 202Q756 176 712 143L649 97L818 97L798-1L482-1Z"  horiz-adv-x="891" vert-adv-y="1000"  />

      
      <glyph glyph-name="unibe" unicode="&#xbe;" d="M177 278Q140 278 105.50 285.50Q71 293 47 305L47 399Q75 383 106 373.50Q137 364 171 364Q206 364 231 378.50Q256 393 256 422Q256 440 243.50 452.50Q231 465 200 465L138 465L155 543L199 543Q239 543 263 556.50Q287 570 287 598Q287 617 274.50 627Q262 637 240 637Q217 637 194 628.50Q171 620 148 605L108 678Q143 701 180 712Q217 723 261 723Q311 723 341.50 708.50Q372 694 385.50 670.50Q399 647 399 620Q399 569 368 543.50Q337 518 293 507L293 503Q333 494 350.50 471.50Q368 449 368 418Q368 369 340.50 338Q313 307 269 292.50Q225 278 177 278M136 0L667 714L782 714L253 0L136 0M620 0L636 74L454 74L469 159L701 431L828 431L769 156L827 156L810 74L752 74L736 0L620 0M568 156L653 156L673 236Q678 256 681.50 268.50Q685 281 692 305Q683 291 670.50 276Q658 261 650 251L568 156Z"  horiz-adv-x="863" vert-adv-y="1000"  />

      
      <glyph glyph-name="unibf" unicode="&#xbf;" d="M336 297Q323 228 296 183Q269 138 209 97Q160 64 138 42Q116 20 116-12Q116-39 131.50-54.50Q147-70 181-70Q216-70 251.50-56Q287-42 331-21L376-129Q331-154 276.50-172Q222-190 159-190Q71-190 21.50-147Q-28-104-28-28Q-28 22-8.50 57.50Q11 93 44 121Q77 149 119 177Q149 196 166 213Q183 230 193 249Q203 268 210 297L336 297M310 547Q352 547 369 525.50Q386 504 386 478Q386 442 363.50 411.50Q341 381 286 381Q253 381 233 399.50Q213 418 213 452Q213 493 239.50 520Q266 547 310 547Z"  horiz-adv-x="459" vert-adv-y="1000"  />

      
      <glyph glyph-name="unic0" unicode="&#xc0;" d="M-60 0L314 714L496 714L568 0L423 0L411 170L180 170L96 0L-60 0M241 297L404 297L391 481Q389 510 387 540Q385 570 386 601L384 601Q374 574 362 547.50Q350 521 335 490L241 297M414 774Q393 794 370 820Q347 846 327 873.50Q307 901 296 924L296 934L448 934Q456 900 470.50 861.50Q485 823 504 786L504 774L414 774Z"  horiz-adv-x="628" vert-adv-y="1000"  />

      
      <glyph glyph-name="unic1" unicode="&#xc1;" d="M-60 0L314 714L496 714L568 0L423 0L411 170L180 170L96 0L-60 0M241 297L404 297L391 481Q389 510 387 540Q385 570 386 601L384 601Q374 574 362 547.50Q350 521 335 490L241 297M340 774L340 786Q365 814 395 856.50Q425 899 448 934L612 934L612 926Q601 912 580.50 892Q560 872 535 850Q510 828 485.50 808Q461 788 442 774L340 774Z"  horiz-adv-x="628" vert-adv-y="1000"  />

      
      <glyph glyph-name="unic2" unicode="&#xc2;" d="M-60 0L314 714L496 714L568 0L423 0L411 170L180 170L96 0L-60 0M241 297L404 297L391 481Q389 510 387 540Q385 570 386 601L384 601Q374 574 362 547.50Q350 521 335 490L241 297M215 774L215 786Q235 804 262 830.50Q289 857 315.50 884.50Q342 912 359 934L524 934Q539 899 564.50 857Q590 815 610 786L610 774L513 774Q496 789 473.50 812Q451 835 434 856Q405 832 377.50 812.50Q350 793 321 774L215 774Z"  horiz-adv-x="628" vert-adv-y="1000"  />

      
      <glyph glyph-name="unic3" unicode="&#xc3;" d="M-60 0L314 714L496 714L568 0L423 0L411 170L180 170L96 0L-60 0M241 297L404 297L391 481Q389 510 387 540Q385 570 386 601L384 601Q374 574 362 547.50Q350 521 335 490L241 297M227 773Q242 852 277.50 888Q313 924 364 924Q396 924 419 911Q442 898 461.50 885.50Q481 873 501 873Q532 873 552 925L636 925Q619 845 583.50 809.50Q548 774 496 774Q464 774 441.50 786.50Q419 799 399.50 812Q380 825 359 825Q327 825 313 773L227 773Z"  horiz-adv-x="628" vert-adv-y="1000"  />

      
      <glyph glyph-name="unic4" unicode="&#xc4;" d="M-60 0L314 714L496 714L568 0L423 0L411 170L180 170L96 0L-60 0M241 297L404 297L391 481Q389 510 387 540Q385 570 386 601L384 601Q374 574 362 547.50Q350 521 335 490L241 297M520 789Q493 789 475.50 801Q458 813 458 843Q458 880 477.50 900Q497 920 532 920Q557 920 575 908.50Q593 897 593 867Q593 832 575.50 810.50Q558 789 520 789M333 789Q306 789 288.50 801Q271 813 271 843Q271 880 290.50 900Q310 920 345 920Q370 920 388 908.50Q406 897 406 867Q406 832 388 810.50Q370 789 333 789Z"  horiz-adv-x="628" vert-adv-y="1000"  />

      
      <glyph glyph-name="unic5" unicode="&#xc5;" d="M-60 0L314 714L496 714L568 0L423 0L411 170L180 170L96 0L-60 0M241 297L404 297L391 481Q389 510 387 540Q385 570 386 601L384 601Q374 574 362 547.50Q350 521 335 490L241 297M432 773Q378 773 344.50 804Q311 835 311 889Q311 943 344.50 974Q378 1005 432 1005Q484 1005 520 974Q556 943 556 890Q556 835 520.50 804Q485 773 432 773M432 842Q452 842 465.50 854.50Q479 867 479 889Q479 911 465.50 923.50Q452 936 432 936Q412 936 398.50 923.50Q385 911 385 889Q385 867 397 854.50Q409 842 432 842Z"  horiz-adv-x="628" vert-adv-y="1000"  />

      
      <glyph glyph-name="unic6" unicode="&#xc6;" d="M-60 0L390 714L929 714L903 590L653 590L620 433L853 433L826 309L593 309L554 125L804 125L778 0L379 0L415 170L207 170L100 0L-60 0M287 297L442 297L504 590L465 590L287 297Z"  horiz-adv-x="895" vert-adv-y="1000"  />

      
      <glyph glyph-name="unic7" unicode="&#xc7;" d="M322-10Q192-10 126 66Q60 142 60 270Q60 333 74.50 397.50Q89 462 118.50 520.50Q148 579 193 625.50Q238 672 300 698.50Q362 725 442 725Q510 725 557.50 712.50Q605 700 652 674L594 552Q560 572 523.50 585.50Q487 599 442 599Q382 599 338.50 569Q295 539 267 491Q239 443 225.50 386.50Q212 330 212 278Q212 197 245.50 157Q279 117 352 117Q392 117 434 127.50Q476 138 517 155L517 28Q487 16 437 3Q387-10 322-10M264-240Q241-240 221-236.50Q201-233 190-229L190-147Q201-151 217.50-154.50Q234-158 251-158Q301-158 301-118Q301-102 285.50-91Q270-80 232-75L279 0L369 0L350-35Q379-45 399-65Q419-85 419-122Q419-172 382.50-206Q346-240 264-240Z"  horiz-adv-x="612" vert-adv-y="1000"  />

      
      <glyph glyph-name="unic8" unicode="&#xc8;" d="M26 0L177 714L576 714L550 590L300 590L267 433L500 433L473 309L240 309L201 125L451 125L425 0L26 0M374 774Q353 794 330 820Q307 846 287 873.50Q267 901 256 924L256 934L408 934Q416 900 430.50 861.50Q445 823 464 786L464 774L374 774Z"  horiz-adv-x="542" vert-adv-y="1000"  />

      
      <glyph glyph-name="unic9" unicode="&#xc9;" d="M26 0L177 714L576 714L550 590L300 590L267 433L500 433L473 309L240 309L201 125L451 125L425 0L26 0M300 774L300 786Q325 814 355 856.50Q385 899 408 934L572 934L572 926Q561 912 540.50 892Q520 872 495 850Q470 828 445.50 808Q421 788 402 774L300 774Z"  horiz-adv-x="542" vert-adv-y="1000"  />

      
      <glyph glyph-name="unica" unicode="&#xca;" d="M26 0L177 714L576 714L550 590L300 590L267 433L500 433L473 309L240 309L201 125L451 125L425 0L26 0M175 774L175 786Q195 804 222 830.50Q249 857 275.50 884.50Q302 912 319 934L484 934Q499 899 524.50 857Q550 815 570 786L570 774L473 774Q456 789 433.50 812Q411 835 394 856Q365 832 337.50 812.50Q310 793 281 774L175 774Z"  horiz-adv-x="542" vert-adv-y="1000"  />

      
      <glyph glyph-name="unicb" unicode="&#xcb;" d="M26 0L177 714L576 714L550 590L300 590L267 433L500 433L473 309L240 309L201 125L451 125L425 0L26 0M480 789Q453 789 435.50 801Q418 813 418 843Q418 880 437.50 900Q457 920 492 920Q517 920 535 908.50Q553 897 553 867Q553 832 535.50 810.50Q518 789 480 789M293 789Q266 789 248.50 801Q231 813 231 843Q231 880 250.50 900Q270 920 305 920Q330 920 348 908.50Q366 897 366 867Q366 832 348 810.50Q330 789 293 789Z"  horiz-adv-x="542" vert-adv-y="1000"  />

      
      <glyph glyph-name="unicc" unicode="&#xcc;" d="M-29 0L-11 86L80 126L178 588L104 628L122 714L438 714L420 628L327 588L229 126L305 86L287 0L-29 0M285 774Q264 794 241 820Q218 846 198 873.50Q178 901 167 924L167 934L319 934Q327 900 341.50 861.50Q356 823 375 786L375 774L285 774Z"  horiz-adv-x="383" vert-adv-y="1000"  />

      
      <glyph glyph-name="unicd" unicode="&#xcd;" d="M-29 0L-11 86L80 126L178 588L104 628L122 714L438 714L420 628L327 588L229 126L305 86L287 0L-29 0M211 774L211 786Q236 814 266 856.50Q296 899 319 934L483 934L483 926Q472 912 451.50 892Q431 872 406 850Q381 828 356.50 808Q332 788 313 774L211 774Z"  horiz-adv-x="383" vert-adv-y="1000"  />

      
      <glyph glyph-name="unice" unicode="&#xce;" d="M-29 0L-11 86L80 126L178 588L104 628L122 714L438 714L420 628L327 588L229 126L305 86L287 0L-29 0M86 774L86 786Q106 804 133 830.50Q160 857 186.50 884.50Q213 912 230 934L395 934Q410 899 435.50 857Q461 815 481 786L481 774L384 774Q367 789 344.50 812Q322 835 305 856Q276 832 248.50 812.50Q221 793 192 774L86 774Z"  horiz-adv-x="383" vert-adv-y="1000"  />

      
      <glyph glyph-name="unicf" unicode="&#xcf;" d="M-29 0L-11 86L80 126L178 588L104 628L122 714L438 714L420 628L327 588L229 126L305 86L287 0L-29 0M391 789Q364 789 346.50 801Q329 813 329 843Q329 880 348.50 900Q368 920 403 920Q428 920 446 908.50Q464 897 464 867Q464 832 446.50 810.50Q429 789 391 789M204 789Q177 789 159.50 801Q142 813 142 843Q142 880 161.50 900Q181 920 216 920Q241 920 259 908.50Q277 897 277 867Q277 832 259 810.50Q241 789 204 789Z"  horiz-adv-x="383" vert-adv-y="1000"  />

      
      <glyph glyph-name="unid0" unicode="&#xd0;" d="M26 0L87 291L18 291L45 415L113 415L177 714L370 714Q501 714 573.50 644.50Q646 575 646 444Q646 308 599.50 208.50Q553 109 463.50 54.50Q374 0 246 0L26 0M201 125L253 125Q335 125 388 168.50Q441 212 467 283Q493 354 493 436Q493 515 456.50 552.50Q420 590 356 590L300 590L263 415L379 415L352 291L236 291L201 125Z"  horiz-adv-x="677" vert-adv-y="1000"  />

      
      <glyph glyph-name="unid1" unicode="&#xd1;" d="M26 0L177 714L351 714L517 188L521 188Q524 209 529.50 242.50Q535 276 541.50 312Q548 348 554 376L626 714L760 714L609 0L442 0L268 540L263 540Q262 534 259 511.50Q256 489 251.50 458Q247 427 241.50 394.50Q236 362 231 336L160 0L26 0M296 773Q311 852 346.50 888Q382 924 433 924Q465 924 488 911Q511 898 530.50 885.50Q550 873 570 873Q601 873 621 925L705 925Q688 845 652.50 809.50Q617 774 565 774Q533 774 510.50 786.50Q488 799 468.50 812Q449 825 428 825Q396 825 382 773L296 773Z"  horiz-adv-x="755" vert-adv-y="1000"  />

      
      <glyph glyph-name="unid2" unicode="&#xd2;" d="M325-10Q195-10 127.50 64.50Q60 139 60 262Q60 346 82.50 428Q105 510 151.50 577Q198 644 269 684.50Q340 725 438 725Q568 725 633.50 652Q699 579 699 458Q699 371 677 287.50Q655 204 609.50 136.50Q564 69 493.50 29.50Q423-10 325-10M336 117Q394 117 442 158.50Q490 200 518.50 276Q547 352 547 454Q547 520 516.50 559.50Q486 599 426 599Q380 599 340.50 572.50Q301 546 272.50 499Q244 452 228 391.50Q212 331 212 262Q212 191 245 154Q278 117 336 117M465 774Q444 794 421 820Q398 846 378 873.50Q358 901 347 924L347 934L499 934Q507 900 521.50 861.50Q536 823 555 786L555 774L465 774Z"  horiz-adv-x="730" vert-adv-y="1000"  />

      
      <glyph glyph-name="unid3" unicode="&#xd3;" d="M325-10Q195-10 127.50 64.50Q60 139 60 262Q60 346 82.50 428Q105 510 151.50 577Q198 644 269 684.50Q340 725 438 725Q568 725 633.50 652Q699 579 699 458Q699 371 677 287.50Q655 204 609.50 136.50Q564 69 493.50 29.50Q423-10 325-10M336 117Q394 117 442 158.50Q490 200 518.50 276Q547 352 547 454Q547 520 516.50 559.50Q486 599 426 599Q380 599 340.50 572.50Q301 546 272.50 499Q244 452 228 391.50Q212 331 212 262Q212 191 245 154Q278 117 336 117M391 774L391 786Q416 814 446 856.50Q476 899 499 934L663 934L663 926Q652 912 631.50 892Q611 872 586 850Q561 828 536.50 808Q512 788 493 774L391 774Z"  horiz-adv-x="730" vert-adv-y="1000"  />

      
      <glyph glyph-name="unid4" unicode="&#xd4;" d="M325-10Q195-10 127.50 64.50Q60 139 60 262Q60 346 82.50 428Q105 510 151.50 577Q198 644 269 684.50Q340 725 438 725Q568 725 633.50 652Q699 579 699 458Q699 371 677 287.50Q655 204 609.50 136.50Q564 69 493.50 29.50Q423-10 325-10M336 117Q394 117 442 158.50Q490 200 518.50 276Q547 352 547 454Q547 520 516.50 559.50Q486 599 426 599Q380 599 340.50 572.50Q301 546 272.50 499Q244 452 228 391.50Q212 331 212 262Q212 191 245 154Q278 117 336 117M266 774L266 786Q286 804 313 830.50Q340 857 366.50 884.50Q393 912 410 934L575 934Q590 899 615.50 857Q641 815 661 786L661 774L564 774Q547 789 524.50 812Q502 835 485 856Q456 832 428.50 812.50Q401 793 372 774L266 774Z"  horiz-adv-x="730" vert-adv-y="1000"  />

      
      <glyph glyph-name="unid5" unicode="&#xd5;" d="M325-10Q195-10 127.50 64.50Q60 139 60 262Q60 346 82.50 428Q105 510 151.50 577Q198 644 269 684.50Q340 725 438 725Q568 725 633.50 652Q699 579 699 458Q699 371 677 287.50Q655 204 609.50 136.50Q564 69 493.50 29.50Q423-10 325-10M336 117Q394 117 442 158.50Q490 200 518.50 276Q547 352 547 454Q547 520 516.50 559.50Q486 599 426 599Q380 599 340.50 572.50Q301 546 272.50 499Q244 452 228 391.50Q212 331 212 262Q212 191 245 154Q278 117 336 117M278 773Q293 852 328.50 888Q364 924 415 924Q447 924 470 911Q493 898 512.50 885.50Q532 873 552 873Q583 873 603 925L687 925Q670 845 634.50 809.50Q599 774 547 774Q515 774 492.50 786.50Q470 799 450.50 812Q431 825 410 825Q378 825 364 773L278 773Z"  horiz-adv-x="730" vert-adv-y="1000"  />

      
      <glyph glyph-name="unid6" unicode="&#xd6;" d="M325-10Q195-10 127.50 64.50Q60 139 60 262Q60 346 82.50 428Q105 510 151.50 577Q198 644 269 684.50Q340 725 438 725Q568 725 633.50 652Q699 579 699 458Q699 371 677 287.50Q655 204 609.50 136.50Q564 69 493.50 29.50Q423-10 325-10M336 117Q394 117 442 158.50Q490 200 518.50 276Q547 352 547 454Q547 520 516.50 559.50Q486 599 426 599Q380 599 340.50 572.50Q301 546 272.50 499Q244 452 228 391.50Q212 331 212 262Q212 191 245 154Q278 117 336 117M571 789Q544 789 526.50 801Q509 813 509 843Q509 880 528.50 900Q548 920 583 920Q608 920 626 908.50Q644 897 644 867Q644 832 626.50 810.50Q609 789 571 789M384 789Q357 789 339.50 801Q322 813 322 843Q322 880 341.50 900Q361 920 396 920Q421 920 439 908.50Q457 897 457 867Q457 832 439 810.50Q421 789 384 789Z"  horiz-adv-x="730" vert-adv-y="1000"  />

      
      <glyph glyph-name="unid7" unicode="&#xd7;" d="M443 575L518 502L369 353L516 205L443 131L294 278L147 132L74 206L219 353L73 500L147 575L294 429L443 575Z"  horiz-adv-x="572" vert-adv-y="1000"  />

      
      <glyph glyph-name="unid8" unicode="&#xd8;" d="M124-42L49 14L108 88Q60 156 60 262Q60 346 82.50 428Q105 510 151.50 577Q198 644 269 684.50Q340 725 438 725Q527 725 587 688L638 752L712 695L655 624Q678 590 688.50 548.50Q699 507 699 458Q699 371 677 287.50Q655 204 609.50 136.50Q564 69 493.50 29.50Q423-10 325-10Q238-10 177 25L124-42M211 213L502 581Q488 590 468.50 596Q449 602 425 602Q376 602 335.50 575Q295 548 266.50 500.50Q238 453 222.50 392Q207 331 207 262Q207 251 208.50 238.50Q210 226 211 213M338 114Q398 114 447 156.50Q496 199 524.50 275.50Q553 352 553 454Q553 462 552.50 473.50Q552 485 551 493L263 132Q292 114 338 114Z"  horiz-adv-x="730" vert-adv-y="1000"  />

      
      <glyph glyph-name="unid9" unicode="&#xd9;" d="M295-10Q184-10 126.50 45Q69 100 69 191Q69 207 70.50 226.50Q72 246 76 263L172 714L321 714L226 265Q218 228 218 204Q218 117 310 117Q375 117 407.50 154.50Q440 192 456 266L551 714L700 714L602 252Q586 176 550 117Q514 58 451.50 24Q389-10 295-10M442 774Q421 794 398 820Q375 846 355 873.50Q335 901 324 924L324 934L476 934Q484 900 498.50 861.50Q513 823 532 786L532 774L442 774Z"  horiz-adv-x="691" vert-adv-y="1000"  />

      
      <glyph glyph-name="unida" unicode="&#xda;" d="M295-10Q184-10 126.50 45Q69 100 69 191Q69 207 70.50 226.50Q72 246 76 263L172 714L321 714L226 265Q218 228 218 204Q218 117 310 117Q375 117 407.50 154.50Q440 192 456 266L551 714L700 714L602 252Q586 176 550 117Q514 58 451.50 24Q389-10 295-10M368 774L368 786Q393 814 423 856.50Q453 899 476 934L640 934L640 926Q629 912 608.50 892Q588 872 563 850Q538 828 513.50 808Q489 788 470 774L368 774Z"  horiz-adv-x="691" vert-adv-y="1000"  />

      
      <glyph glyph-name="unidb" unicode="&#xdb;" d="M295-10Q184-10 126.50 45Q69 100 69 191Q69 207 70.50 226.50Q72 246 76 263L172 714L321 714L226 265Q218 228 218 204Q218 117 310 117Q375 117 407.50 154.50Q440 192 456 266L551 714L700 714L602 252Q586 176 550 117Q514 58 451.50 24Q389-10 295-10M243 774L243 786Q263 804 290 830.50Q317 857 343.50 884.50Q370 912 387 934L552 934Q567 899 592.50 857Q618 815 638 786L638 774L541 774Q524 789 501.50 812Q479 835 462 856Q433 832 405.50 812.50Q378 793 349 774L243 774Z"  horiz-adv-x="691" vert-adv-y="1000"  />

      
      <glyph glyph-name="unidc" unicode="&#xdc;" d="M295-10Q184-10 126.50 45Q69 100 69 191Q69 207 70.50 226.50Q72 246 76 263L172 714L321 714L226 265Q218 228 218 204Q218 117 310 117Q375 117 407.50 154.50Q440 192 456 266L551 714L700 714L602 252Q586 176 550 117Q514 58 451.50 24Q389-10 295-10M548 789Q521 789 503.50 801Q486 813 486 843Q486 880 505.50 900Q525 920 560 920Q585 920 603 908.50Q621 897 621 867Q621 832 603.50 810.50Q586 789 548 789M361 789Q334 789 316.50 801Q299 813 299 843Q299 880 318.50 900Q338 920 373 920Q398 920 416 908.50Q434 897 434 867Q434 832 416 810.50Q398 789 361 789Z"  horiz-adv-x="691" vert-adv-y="1000"  />

      
      <glyph glyph-name="unidd" unicode="&#xdd;" d="M148 0L206 273L91 714L243 714L306 425L489 714L656 714L354 273L296 0L148 0M298 774L298 786Q323 814 353 856.50Q383 899 406 934L570 934L570 926Q559 912 538.50 892Q518 872 493 850Q468 828 443.50 808Q419 788 400 774L298 774Z"  horiz-adv-x="564" vert-adv-y="1000"  />

      
      <glyph glyph-name="unide" unicode="&#xde;" d="M26 0L177 714L326 714L302 602L343 602Q430 602 482.50 576Q535 550 558.50 503Q582 456 582 394Q582 309 541 253.50Q500 198 430 170.50Q360 143 271 143L205 143L175 0L26 0M232 267L283 267Q350 267 391 299.50Q432 332 432 390Q432 478 337 478L277 478L232 267Z"  horiz-adv-x="606" vert-adv-y="1000"  />

      
      <glyph glyph-name="unidf" unicode="&#xdf;" d="M-49-240Q-67-240-89.50-236.50Q-112-233-127-228L-127-110Q-97-120-71-120Q-41-120-19.50-100Q2-80 12-33L136 556Q158 662 223 713.50Q288 765 413 765Q516 765 575.50 721Q635 677 635 604Q635 541 607 504.50Q579 468 524 436Q498 421 482 408Q466 395 466 376Q466 365 476.50 352Q487 339 515 318Q556 287 580 254Q604 221 604 171Q604 93 547 41.50Q490-10 379-10Q288-10 234 20L234 137Q261 120 293.50 109.50Q326 99 360 99Q410 99 432.50 115.50Q455 132 455 157Q455 178 441 195Q427 212 389 241Q351 270 330 299Q309 328 309 366Q309 416 337 445Q365 474 410 499Q442 517 461 536Q480 555 480 583Q480 613 460.50 631Q441 649 400 649Q360 649 336.50 633.50Q313 618 300.50 593Q288 568 282 540L158-55Q146-110 122.50-151.50Q99-193 57.50-216.50Q16-240-49-240Z"  horiz-adv-x="659" vert-adv-y="1000"  />

      
      <glyph glyph-name="unie0" unicode="&#xe0;" d="M198-10Q158-10 123 9.50Q88 29 66 72.50Q44 116 44 188Q44 255 62 320Q80 385 113 438.50Q146 492 192.50 524Q239 556 297 556Q349 556 381.50 534Q414 512 432 476L436 476L464 546L577 546L461 0L351 0L358 71L354 71Q325 35 287.50 12.50Q250-10 198-10M256 109Q286 109 312 133Q338 157 356.50 194.50Q375 232 383 275Q390 311 390 357Q390 392 372 414.50Q354 437 322 437Q295 437 271.50 415.50Q248 394 230.50 359Q213 324 203 281Q193 238 193 195Q193 109 256 109M361 606Q340 626 317 652Q294 678 274 705.50Q254 733 243 756L243 766L395 766Q403 732 417.50 693.50Q432 655 451 618L451 606L361 606Z"  horiz-adv-x="594" vert-adv-y="1000"  />

      
      <glyph glyph-name="unie1" unicode="&#xe1;" d="M198-10Q158-10 123 9.50Q88 29 66 72.50Q44 116 44 188Q44 255 62 320Q80 385 113 438.50Q146 492 192.50 524Q239 556 297 556Q349 556 381.50 534Q414 512 432 476L436 476L464 546L577 546L461 0L351 0L358 71L354 71Q325 35 287.50 12.50Q250-10 198-10M256 109Q286 109 312 133Q338 157 356.50 194.50Q375 232 383 275Q390 311 390 357Q390 392 372 414.50Q354 437 322 437Q295 437 271.50 415.50Q248 394 230.50 359Q213 324 203 281Q193 238 193 195Q193 109 256 109M287 606L287 618Q312 646 342 688.50Q372 731 395 766L559 766L559 758Q548 744 527.50 724Q507 704 482 682Q457 660 432.50 640Q408 620 389 606L287 606Z"  horiz-adv-x="594" vert-adv-y="1000"  />

      
      <glyph glyph-name="unie2" unicode="&#xe2;" d="M198-10Q158-10 123 9.50Q88 29 66 72.50Q44 116 44 188Q44 255 62 320Q80 385 113 438.50Q146 492 192.50 524Q239 556 297 556Q349 556 381.50 534Q414 512 432 476L436 476L464 546L577 546L461 0L351 0L358 71L354 71Q325 35 287.50 12.50Q250-10 198-10M256 109Q286 109 312 133Q338 157 356.50 194.50Q375 232 383 275Q390 311 390 357Q390 392 372 414.50Q354 437 322 437Q295 437 271.50 415.50Q248 394 230.50 359Q213 324 203 281Q193 238 193 195Q193 109 256 109M162 606L162 618Q182 636 209 662.50Q236 689 262.50 716.50Q289 744 306 766L471 766Q486 731 511.50 689Q537 647 557 618L557 606L460 606Q443 621 420.50 644Q398 667 381 688Q352 664 324.50 644.50Q297 625 268 606L162 606Z"  horiz-adv-x="594" vert-adv-y="1000"  />

      
      <glyph glyph-name="unie3" unicode="&#xe3;" d="M198-10Q158-10 123 9.50Q88 29 66 72.50Q44 116 44 188Q44 255 62 320Q80 385 113 438.50Q146 492 192.50 524Q239 556 297 556Q349 556 381.50 534Q414 512 432 476L436 476L464 546L577 546L461 0L351 0L358 71L354 71Q325 35 287.50 12.50Q250-10 198-10M256 109Q286 109 312 133Q338 157 356.50 194.50Q375 232 383 275Q390 311 390 357Q390 392 372 414.50Q354 437 322 437Q295 437 271.50 415.50Q248 394 230.50 359Q213 324 203 281Q193 238 193 195Q193 109 256 109M174 605Q189 684 224.50 720Q260 756 311 756Q343 756 366 743Q389 730 408.50 717.50Q428 705 448 705Q479 705 499 757L583 757Q566 677 530.50 641.50Q495 606 443 606Q411 606 388.50 618.50Q366 631 346.50 644Q327 657 306 657Q274 657 260 605L174 605Z"  horiz-adv-x="594" vert-adv-y="1000"  />

      
      <glyph glyph-name="unie4" unicode="&#xe4;" d="M198-10Q158-10 123 9.50Q88 29 66 72.50Q44 116 44 188Q44 255 62 320Q80 385 113 438.50Q146 492 192.50 524Q239 556 297 556Q349 556 381.50 534Q414 512 432 476L436 476L464 546L577 546L461 0L351 0L358 71L354 71Q325 35 287.50 12.50Q250-10 198-10M256 109Q286 109 312 133Q338 157 356.50 194.50Q375 232 383 275Q390 311 390 357Q390 392 372 414.50Q354 437 322 437Q295 437 271.50 415.50Q248 394 230.50 359Q213 324 203 281Q193 238 193 195Q193 109 256 109M467 621Q440 621 422.50 633Q405 645 405 675Q405 712 424.50 732Q444 752 479 752Q504 752 522 740.50Q540 729 540 699Q540 664 522.50 642.50Q505 621 467 621M280 621Q253 621 235.50 633Q218 645 218 675Q218 712 237.50 732Q257 752 292 752Q317 752 335 740.50Q353 729 353 699Q353 664 335 642.50Q317 621 280 621Z"  horiz-adv-x="594" vert-adv-y="1000"  />

      
      <glyph glyph-name="unie5" unicode="&#xe5;" d="M198-10Q158-10 123 9.50Q88 29 66 72.50Q44 116 44 188Q44 255 62 320Q80 385 113 438.50Q146 492 192.50 524Q239 556 297 556Q349 556 381.50 534Q414 512 432 476L436 476L464 546L577 546L461 0L351 0L358 71L354 71Q325 35 287.50 12.50Q250-10 198-10M256 109Q286 109 312 133Q338 157 356.50 194.50Q375 232 383 275Q390 311 390 357Q390 392 372 414.50Q354 437 322 437Q295 437 271.50 415.50Q248 394 230.50 359Q213 324 203 281Q193 238 193 195Q193 109 256 109M379 605Q325 605 291.50 636Q258 667 258 721Q258 775 291.50 806Q325 837 379 837Q431 837 467 806Q503 775 503 722Q503 667 467.50 636Q432 605 379 605M379 674Q399 674 412.50 686.50Q426 699 426 721Q426 743 412.50 755.50Q399 768 379 768Q359 768 345.50 755.50Q332 743 332 721Q332 699 344 686.50Q356 674 379 674Z"  horiz-adv-x="594" vert-adv-y="1000"  />

      
      <glyph glyph-name="unie6" unicode="&#xe6;" d="M195-10Q128-10 86 40.50Q44 91 44 188Q44 260 62 326Q80 392 113.50 444Q147 496 193 526Q239 556 294 556Q344 556 374 535.50Q404 515 426 476L431 476L459 546L551 546L542 502Q565 528 603.50 542Q642 556 683 556Q762 556 804.50 514Q847 472 847 407Q847 321 769.50 269Q692 217 533 217L508 217Q507 211 507 207Q507 203 507 198Q507 159 530 130Q553 101 612 101Q649 101 690.50 113.50Q732 126 765 143L765 32Q727 14 682 2Q637-10 589-10Q536-10 501 3.50Q466 17 444 46L436 0L344 0L351 71L346 71Q317 35 282 12.50Q247-10 195-10M524 316L546 316Q631 316 668.50 342.50Q706 369 706 404Q706 450 655 450Q628 450 601 433Q574 416 553 386Q532 356 524 316M253 109Q296 109 327.50 153Q359 197 374 259Q385 305 385 351Q385 390 369 413.50Q353 437 319 437Q291 437 268 415.50Q245 394 228 359Q211 324 202 281Q193 238 193 195Q193 148 211 128.50Q229 109 253 109Z"  horiz-adv-x="872" vert-adv-y="1000"  />

      
      <glyph glyph-name="unie7" unicode="&#xe7;" d="M247-10Q190-10 144 10Q98 30 71 74.50Q44 119 44 191Q44 264 63 330Q82 396 119 447Q156 498 210 527Q264 556 333 556Q382 556 420.50 547Q459 538 493 521L448 409Q422 420 396.50 428.50Q371 437 339 437Q292 437 259.50 402.50Q227 368 210 314Q193 260 193 203Q193 156 215 132.50Q237 109 277 109Q314 109 345.50 120.50Q377 132 411 149L411 29Q376 11 337 0.50Q298-10 247-10M171-240Q148-240 128-236.50Q108-233 97-229L97-147Q108-151 124.50-154.50Q141-158 158-158Q208-158 208-118Q208-102 192.50-91Q177-80 139-75L186 0L276 0L257-35Q286-45 306-65Q326-85 326-122Q326-172 289.50-206Q253-240 171-240Z"  horiz-adv-x="483" vert-adv-y="1000"  />

      
      <glyph glyph-name="unie8" unicode="&#xe8;" d="M260-10Q164-10 104 42Q44 94 44 201Q44 270 63.50 333.50Q83 397 121.50 447Q160 497 217 526.50Q274 556 349 556Q440 556 486 514Q532 472 532 407Q532 321 454.50 269Q377 217 218 217L193 217Q192 211 192 206.50Q192 202 192 197Q192 153 217 127Q242 101 289 101Q332 101 367 110.50Q402 120 450 143L450 32Q407 11 362.50 0.50Q318-10 260-10M209 316L231 316Q316 316 353.50 342.50Q391 369 391 404Q391 450 340 450Q312 450 285.50 433Q259 416 238.50 386Q218 356 209 316M349 606Q328 626 305 652Q282 678 262 705.50Q242 733 231 756L231 766L383 766Q391 732 405.50 693.50Q420 655 439 618L439 606L349 606Z"  horiz-adv-x="557" vert-adv-y="1000"  />

      
      <glyph glyph-name="unie9" unicode="&#xe9;" d="M260-10Q164-10 104 42Q44 94 44 201Q44 270 63.50 333.50Q83 397 121.50 447Q160 497 217 526.50Q274 556 349 556Q440 556 486 514Q532 472 532 407Q532 321 454.50 269Q377 217 218 217L193 217Q192 211 192 206.50Q192 202 192 197Q192 153 217 127Q242 101 289 101Q332 101 367 110.50Q402 120 450 143L450 32Q407 11 362.50 0.50Q318-10 260-10M209 316L231 316Q316 316 353.50 342.50Q391 369 391 404Q391 450 340 450Q312 450 285.50 433Q259 416 238.50 386Q218 356 209 316M275 606L275 618Q300 646 330 688.50Q360 731 383 766L547 766L547 758Q536 744 515.50 724Q495 704 470 682Q445 660 420.50 640Q396 620 377 606L275 606Z"  horiz-adv-x="557" vert-adv-y="1000"  />

      
      <glyph glyph-name="uniea" unicode="&#xea;" d="M260-10Q164-10 104 42Q44 94 44 201Q44 270 63.50 333.50Q83 397 121.50 447Q160 497 217 526.50Q274 556 349 556Q440 556 486 514Q532 472 532 407Q532 321 454.50 269Q377 217 218 217L193 217Q192 211 192 206.50Q192 202 192 197Q192 153 217 127Q242 101 289 101Q332 101 367 110.50Q402 120 450 143L450 32Q407 11 362.50 0.50Q318-10 260-10M209 316L231 316Q316 316 353.50 342.50Q391 369 391 404Q391 450 340 450Q312 450 285.50 433Q259 416 238.50 386Q218 356 209 316M150 606L150 618Q170 636 197 662.50Q224 689 250.50 716.50Q277 744 294 766L459 766Q474 731 499.50 689Q525 647 545 618L545 606L448 606Q431 621 408.50 644Q386 667 369 688Q340 664 312.50 644.50Q285 625 256 606L150 606Z"  horiz-adv-x="557" vert-adv-y="1000"  />

      
      <glyph glyph-name="unieb" unicode="&#xeb;" d="M260-10Q164-10 104 42Q44 94 44 201Q44 270 63.50 333.50Q83 397 121.50 447Q160 497 217 526.50Q274 556 349 556Q440 556 486 514Q532 472 532 407Q532 321 454.50 269Q377 217 218 217L193 217Q192 211 192 206.50Q192 202 192 197Q192 153 217 127Q242 101 289 101Q332 101 367 110.50Q402 120 450 143L450 32Q407 11 362.50 0.50Q318-10 260-10M209 316L231 316Q316 316 353.50 342.50Q391 369 391 404Q391 450 340 450Q312 450 285.50 433Q259 416 238.50 386Q218 356 209 316M455 621Q428 621 410.50 633Q393 645 393 675Q393 712 412.50 732Q432 752 467 752Q492 752 510 740.50Q528 729 528 699Q528 664 510.50 642.50Q493 621 455 621M268 621Q241 621 223.50 633Q206 645 206 675Q206 712 225.50 732Q245 752 280 752Q305 752 323 740.50Q341 729 341 699Q341 664 323 642.50Q305 621 268 621Z"  horiz-adv-x="557" vert-adv-y="1000"  />

      
      <glyph glyph-name="uniec" unicode="&#xec;" d="M18 0L134 546L281 546L165 0L18 0M213 606Q192 626 169 652Q146 678 126 705.50Q106 733 95 756L95 766L247 766Q255 732 269.50 693.50Q284 655 303 618L303 606L213 606Z"  horiz-adv-x="297" vert-adv-y="1000"  />

      
      <glyph glyph-name="unied" unicode="&#xed;" d="M18 0L134 546L281 546L165 0L18 0M139 606L139 618Q164 646 194 688.50Q224 731 247 766L411 766L411 758Q400 744 379.50 724Q359 704 334 682Q309 660 284.50 640Q260 620 241 606L139 606Z"  horiz-adv-x="297" vert-adv-y="1000"  />

      
      <glyph glyph-name="uniee" unicode="&#xee;" d="M18 0L134 546L281 546L165 0L18 0M14 606L14 618Q34 636 61 662.50Q88 689 114.50 716.50Q141 744 158 766L323 766Q338 731 363.50 689Q389 647 409 618L409 606L312 606Q295 621 272.50 644Q250 667 233 688Q204 664 176.50 644.50Q149 625 120 606L14 606Z"  horiz-adv-x="297" vert-adv-y="1000"  />

      
      <glyph glyph-name="unief" unicode="&#xef;" d="M18 0L134 546L281 546L165 0L18 0M319 621Q292 621 274.50 633Q257 645 257 675Q257 712 276.50 732Q296 752 331 752Q356 752 374 740.50Q392 729 392 699Q392 664 374.50 642.50Q357 621 319 621M132 621Q105 621 87.50 633Q70 645 70 675Q70 712 89.50 732Q109 752 144 752Q169 752 187 740.50Q205 729 205 699Q205 664 187 642.50Q169 621 132 621Z"  horiz-adv-x="297" vert-adv-y="1000"  />

      
      <glyph glyph-name="unif0" unicode="&#xf0;" d="M251-10Q188-10 139 11.50Q90 33 62.50 78.50Q35 124 35 198Q35 275 64.50 340.50Q94 406 150 446Q206 486 284 486Q334 486 364.50 467.50Q395 449 412 425L417 425Q413 466 400.50 505.50Q388 545 360 572L247 508L204 580L302 635Q291 646 275 655.50Q259 665 241 674L299 765Q332 750 361.50 732Q391 714 412 697L528 761L565 687L471 635Q511 583 526.50 522.50Q542 462 542 388Q542 307 525.50 235Q509 163 473.50 108Q438 53 383 21.50Q328-10 251-10M258 100Q294 100 320.50 129Q347 158 362 203Q377 248 377 294Q377 328 359.50 352Q342 376 305 376Q264 376 237 347Q210 318 196.50 274Q183 230 183 184Q183 145 202 122.50Q221 100 258 100Z"  horiz-adv-x="577" vert-adv-y="1000"  />

      
      <glyph glyph-name="unif1" unicode="&#xf1;" d="M18 0L134 546L246 546L236 445L240 445Q272 494 313.50 525Q355 556 412 556Q482 556 517.50 513.50Q553 471 553 399Q553 363 542 311L477 0L330 0L397 319Q405 354 405 377Q405 437 352 437Q318 437 291.50 408.50Q265 380 245.50 332Q226 284 213 226L165 0L18 0M181 605Q196 684 231.50 720Q267 756 318 756Q350 756 373 743Q396 730 415.50 717.50Q435 705 455 705Q486 705 506 757L590 757Q573 677 537.50 641.50Q502 606 450 606Q418 606 395.50 618.50Q373 631 353.50 644Q334 657 313 657Q281 657 267 605L181 605Z"  horiz-adv-x="604" vert-adv-y="1000"  />

      
      <glyph glyph-name="unif2" unicode="&#xf2;" d="M253-10Q192-10 144.50 15.50Q97 41 70.50 88Q44 135 44 200Q44 272 62 336.50Q80 401 116 450.50Q152 500 206.50 528Q261 556 334 556Q429 556 485 499Q541 442 541 340Q541 271 524 208Q507 145 471.50 96Q436 47 381.50 18.50Q327-10 253-10M265 110Q306 110 334.50 143Q363 176 378 228.50Q393 281 393 340Q393 381 377.50 408.50Q362 436 323 436Q290 436 265 413.50Q240 391 224 355Q208 319 200 278Q192 237 192 200Q192 110 265 110M349 606Q328 626 305 652Q282 678 262 705.50Q242 733 231 756L231 766L383 766Q391 732 405.50 693.50Q420 655 439 618L439 606L349 606Z"  horiz-adv-x="585" vert-adv-y="1000"  />

      
      <glyph glyph-name="unif3" unicode="&#xf3;" d="M253-10Q192-10 144.50 15.50Q97 41 70.50 88Q44 135 44 200Q44 272 62 336.50Q80 401 116 450.50Q152 500 206.50 528Q261 556 334 556Q429 556 485 499Q541 442 541 340Q541 271 524 208Q507 145 471.50 96Q436 47 381.50 18.50Q327-10 253-10M265 110Q306 110 334.50 143Q363 176 378 228.50Q393 281 393 340Q393 381 377.50 408.50Q362 436 323 436Q290 436 265 413.50Q240 391 224 355Q208 319 200 278Q192 237 192 200Q192 110 265 110M275 606L275 618Q300 646 330 688.50Q360 731 383 766L547 766L547 758Q536 744 515.50 724Q495 704 470 682Q445 660 420.50 640Q396 620 377 606L275 606Z"  horiz-adv-x="585" vert-adv-y="1000"  />

      
      <glyph glyph-name="unif4" unicode="&#xf4;" d="M253-10Q192-10 144.50 15.50Q97 41 70.50 88Q44 135 44 200Q44 272 62 336.50Q80 401 116 450.50Q152 500 206.50 528Q261 556 334 556Q429 556 485 499Q541 442 541 340Q541 271 524 208Q507 145 471.50 96Q436 47 381.50 18.50Q327-10 253-10M265 110Q306 110 334.50 143Q363 176 378 228.50Q393 281 393 340Q393 381 377.50 408.50Q362 436 323 436Q290 436 265 413.50Q240 391 224 355Q208 319 200 278Q192 237 192 200Q192 110 265 110M150 606L150 618Q170 636 197 662.50Q224 689 250.50 716.50Q277 744 294 766L459 766Q474 731 499.50 689Q525 647 545 618L545 606L448 606Q431 621 408.50 644Q386 667 369 688Q340 664 312.50 644.50Q285 625 256 606L150 606Z"  horiz-adv-x="585" vert-adv-y="1000"  />

      
      <glyph glyph-name="unif5" unicode="&#xf5;" d="M253-10Q192-10 144.50 15.50Q97 41 70.50 88Q44 135 44 200Q44 272 62 336.50Q80 401 116 450.50Q152 500 206.50 528Q261 556 334 556Q429 556 485 499Q541 442 541 340Q541 271 524 208Q507 145 471.50 96Q436 47 381.50 18.50Q327-10 253-10M265 110Q306 110 334.50 143Q363 176 378 228.50Q393 281 393 340Q393 381 377.50 408.50Q362 436 323 436Q290 436 265 413.50Q240 391 224 355Q208 319 200 278Q192 237 192 200Q192 110 265 110M162 605Q177 684 212.50 720Q248 756 299 756Q331 756 354 743Q377 730 396.50 717.50Q416 705 436 705Q467 705 487 757L571 757Q554 677 518.50 641.50Q483 606 431 606Q399 606 376.50 618.50Q354 631 334.50 644Q315 657 294 657Q262 657 248 605L162 605Z"  horiz-adv-x="585" vert-adv-y="1000"  />

      
      <glyph glyph-name="unif6" unicode="&#xf6;" d="M253-10Q192-10 144.50 15.50Q97 41 70.50 88Q44 135 44 200Q44 272 62 336.50Q80 401 116 450.50Q152 500 206.50 528Q261 556 334 556Q429 556 485 499Q541 442 541 340Q541 271 524 208Q507 145 471.50 96Q436 47 381.50 18.50Q327-10 253-10M265 110Q306 110 334.50 143Q363 176 378 228.50Q393 281 393 340Q393 381 377.50 408.50Q362 436 323 436Q290 436 265 413.50Q240 391 224 355Q208 319 200 278Q192 237 192 200Q192 110 265 110M455 621Q428 621 410.50 633Q393 645 393 675Q393 712 412.50 732Q432 752 467 752Q492 752 510 740.50Q528 729 528 699Q528 664 510.50 642.50Q493 621 455 621M268 621Q241 621 223.50 633Q206 645 206 675Q206 712 225.50 732Q245 752 280 752Q305 752 323 740.50Q341 729 341 699Q341 664 323 642.50Q305 621 268 621Z"  horiz-adv-x="585" vert-adv-y="1000"  />

      
      <glyph glyph-name="unif7" unicode="&#xf7;" d="M295 449Q267 449 247 466.50Q227 484 227 523Q227 564 247 580.50Q267 597 295 597Q322 597 342.50 580.50Q363 564 363 523Q363 484 342.50 466.50Q322 449 295 449M53 299L53 406L538 406L538 299L53 299M295 108Q267 108 247 125.50Q227 143 227 182Q227 223 247 239.50Q267 256 295 256Q322 256 342.50 239.50Q363 223 363 182Q363 143 342.50 125.50Q322 108 295 108Z"  horiz-adv-x="572" vert-adv-y="1000"  />

      
      <glyph glyph-name="unif8" unicode="&#xf8;" d="M90-50L21 3L79 75Q44 127 44 200Q44 272 62 336.50Q80 401 116 450.50Q152 500 206.50 528Q261 556 334 556Q398 556 445 529L479 572L550 518L509 467Q541 415 541 340Q541 271 524 208Q507 145 471.50 96Q436 47 381.50 18.50Q327-10 253-10Q222-10 194-3Q166 4 143 16L90-50M188 208L366 429Q360 434 348 437.50Q336 441 323 441Q287 441 262.50 421.50Q238 402 222.50 370Q207 338 199 301.50Q191 265 189 232Q188 226 188 220Q188 214 188 208M265 105Q299 105 323 125.50Q347 146 362.50 177.50Q378 209 386.50 245.50Q395 282 397 313Q398 318 398 323Q398 328 398 333L223 116Q228 112 240 108.50Q252 105 265 105Z"  horiz-adv-x="585" vert-adv-y="1000"  />

      
      <glyph glyph-name="unif9" unicode="&#xf9;" d="M193-10Q122-10 88 32.50Q54 75 54 147Q54 165 57 193.50Q60 222 66 251L128 546L275 546L208 227Q200 192 200 169Q200 109 253 109Q286 109 313 137.50Q340 166 360 214Q380 262 392 320L440 546L587 546L471 0L359 0L369 101L364 101Q332 52 291 21Q250-10 193-10M366 606Q345 626 322 652Q299 678 279 705.50Q259 733 248 756L248 766L400 766Q408 732 422.50 693.50Q437 655 456 618L456 606L366 606Z"  horiz-adv-x="604" vert-adv-y="1000"  />

      
      <glyph glyph-name="unifa" unicode="&#xfa;" d="M193-10Q122-10 88 32.50Q54 75 54 147Q54 165 57 193.50Q60 222 66 251L128 546L275 546L208 227Q200 192 200 169Q200 109 253 109Q286 109 313 137.50Q340 166 360 214Q380 262 392 320L440 546L587 546L471 0L359 0L369 101L364 101Q332 52 291 21Q250-10 193-10M292 606L292 618Q317 646 347 688.50Q377 731 400 766L564 766L564 758Q553 744 532.50 724Q512 704 487 682Q462 660 437.50 640Q413 620 394 606L292 606Z"  horiz-adv-x="604" vert-adv-y="1000"  />

      
      <glyph glyph-name="unifb" unicode="&#xfb;" d="M193-10Q122-10 88 32.50Q54 75 54 147Q54 165 57 193.50Q60 222 66 251L128 546L275 546L208 227Q200 192 200 169Q200 109 253 109Q286 109 313 137.50Q340 166 360 214Q380 262 392 320L440 546L587 546L471 0L359 0L369 101L364 101Q332 52 291 21Q250-10 193-10M167 606L167 618Q187 636 214 662.50Q241 689 267.50 716.50Q294 744 311 766L476 766Q491 731 516.50 689Q542 647 562 618L562 606L465 606Q448 621 425.50 644Q403 667 386 688Q357 664 329.50 644.50Q302 625 273 606L167 606Z"  horiz-adv-x="604" vert-adv-y="1000"  />

      
      <glyph glyph-name="unifc" unicode="&#xfc;" d="M193-10Q122-10 88 32.50Q54 75 54 147Q54 165 57 193.50Q60 222 66 251L128 546L275 546L208 227Q200 192 200 169Q200 109 253 109Q286 109 313 137.50Q340 166 360 214Q380 262 392 320L440 546L587 546L471 0L359 0L369 101L364 101Q332 52 291 21Q250-10 193-10M472 621Q445 621 427.50 633Q410 645 410 675Q410 712 429.50 732Q449 752 484 752Q509 752 527 740.50Q545 729 545 699Q545 664 527.50 642.50Q510 621 472 621M285 621Q258 621 240.50 633Q223 645 223 675Q223 712 242.50 732Q262 752 297 752Q322 752 340 740.50Q358 729 358 699Q358 664 340 642.50Q322 621 285 621Z"  horiz-adv-x="604" vert-adv-y="1000"  />

      
      <glyph glyph-name="unifd" unicode="&#xfd;" d="M3-240Q-23-240-40-237.50Q-57-235-69-231L-69-114Q-56-116-42.50-118Q-29-120-12-120Q34-120 64-93Q94-66 117-24L130 0L50 546L194 546L221 293Q225 259 226 219Q227 179 227 150L231 150Q241 175 252.50 208.50Q264 242 284 283L411 546L571 546L239-78Q195-161 135.50-200.50Q76-240 3-240M231 606L231 618Q256 646 286 688.50Q316 731 339 766L503 766L503 758Q492 744 471.50 724Q451 704 426 682Q401 660 376.50 640Q352 620 333 606L231 606Z"  horiz-adv-x="519" vert-adv-y="1000"  />

      
      <glyph glyph-name="unife" unicode="&#xfe;" d="M-33-240L179 760L326 760L294 610Q287 578 276 540Q265 502 255 473L259 473Q322 556 397 556Q465 556 508 507Q551 458 551 357Q551 297 536 233Q521 169 490.50 113.50Q460 58 414 24Q368-10 306-10Q256-10 225 13Q194 36 174 70L170 70Q167 30 162-3Q157-36 149-74L114-240L-33-240M273 109Q302 109 325.50 130.50Q349 152 366 187Q383 222 392.50 265Q402 308 402 351Q402 394 383.50 415.50Q365 437 333 437Q302 437 278 414Q254 391 237 353.50Q220 316 212 273Q209 254 207 234Q205 214 205 195Q205 156 221.50 132.50Q238 109 273 109Z"  horiz-adv-x="595" vert-adv-y="1000"  />

      
      <glyph glyph-name="uniff" unicode="&#xff;" d="M3-240Q-23-240-40-237.50Q-57-235-69-231L-69-114Q-56-116-42.50-118Q-29-120-12-120Q34-120 64-93Q94-66 117-24L130 0L50 546L194 546L221 293Q225 259 226 219Q227 179 227 150L231 150Q241 175 252.50 208.50Q264 242 284 283L411 546L571 546L239-78Q195-161 135.50-200.50Q76-240 3-240M411 621Q384 621 366.50 633Q349 645 349 675Q349 712 368.50 732Q388 752 423 752Q448 752 466 740.50Q484 729 484 699Q484 664 466.50 642.50Q449 621 411 621M224 621Q197 621 179.50 633Q162 645 162 675Q162 712 181.50 732Q201 752 236 752Q261 752 279 740.50Q297 729 297 699Q297 664 279 642.50Q261 621 224 621Z"  horiz-adv-x="519" vert-adv-y="1000"  />

      
      <glyph glyph-name="uni0100" unicode="&#x0100;" d="M-60 0L314 714L496 714L568 0L423 0L411 170L180 170L96 0L-60 0M241 297L404 297L391 481Q389 510 387 540Q385 570 386 601L384 601Q374 574 362 547.50Q350 521 335 490L241 297M265 774L287 877L589 877L567 774L265 774Z"  horiz-adv-x="628" vert-adv-y="1000"  />

      
      <glyph glyph-name="uni0101" unicode="&#x0101;" d="M198-10Q158-10 123 9.50Q88 29 66 72.50Q44 116 44 188Q44 255 62 320Q80 385 113 438.50Q146 492 192.50 524Q239 556 297 556Q349 556 381.50 534Q414 512 432 476L436 476L464 546L577 546L461 0L351 0L358 71L354 71Q325 35 287.50 12.50Q250-10 198-10M256 109Q286 109 312 133Q338 157 356.50 194.50Q375 232 383 275Q390 311 390 357Q390 392 372 414.50Q354 437 322 437Q295 437 271.50 415.50Q248 394 230.50 359Q213 324 203 281Q193 238 193 195Q193 109 256 109M212 606L234 709L536 709L514 606L212 606Z"  horiz-adv-x="594" vert-adv-y="1000"  />

      
      <glyph glyph-name="uni0102" unicode="&#x0102;" d="M-60 0L314 714L496 714L568 0L423 0L411 170L180 170L96 0L-60 0M241 297L404 297L391 481Q389 510 387 540Q385 570 386 601L384 601Q374 574 362 547.50Q350 521 335 490L241 297M417 774Q358 774 323.50 793.50Q289 813 274 843.50Q259 874 259 907Q259 926 262 939L347 939Q347 878 422 878Q460 878 484.50 891Q509 904 517 939L609 939Q596 860 549.50 817Q503 774 417 774Z"  horiz-adv-x="628" vert-adv-y="1000"  />

      
      <glyph glyph-name="uni0103" unicode="&#x0103;" d="M198-10Q158-10 123 9.50Q88 29 66 72.50Q44 116 44 188Q44 255 62 320Q80 385 113 438.50Q146 492 192.50 524Q239 556 297 556Q349 556 381.50 534Q414 512 432 476L436 476L464 546L577 546L461 0L351 0L358 71L354 71Q325 35 287.50 12.50Q250-10 198-10M256 109Q286 109 312 133Q338 157 356.50 194.50Q375 232 383 275Q390 311 390 357Q390 392 372 414.50Q354 437 322 437Q295 437 271.50 415.50Q248 394 230.50 359Q213 324 203 281Q193 238 193 195Q193 109 256 109M364 606Q305 606 270.50 625.50Q236 645 221 675.50Q206 706 206 739Q206 758 209 771L294 771Q294 710 369 710Q407 710 431.50 723Q456 736 464 771L556 771Q543 692 496.50 649Q450 606 364 606Z"  horiz-adv-x="594" vert-adv-y="1000"  />

      
      <glyph glyph-name="uni0104" unicode="&#x0104;" d="M-60 0L314 714L496 714L568 0L423 0L411 170L180 170L96 0L-60 0M241 297L404 297L391 481Q389 510 387 540Q385 570 386 601L384 601Q374 574 362 547.50Q350 521 335 490L241 297M424-240Q374-240 345-214Q316-188 316-145Q316-96 345.50-62.50Q375-29 421 0L518 0Q483-28 454-57.50Q425-87 425-122Q425-151 454-151Q468-151 479.50-148.50Q491-146 504-142L504-228Q486-233 467-236.50Q448-240 424-240Z"  horiz-adv-x="628" vert-adv-y="1000"  />

      
      <glyph glyph-name="uni0105" unicode="&#x0105;" d="M198-10Q158-10 123 9.50Q88 29 66 72.50Q44 116 44 188Q44 255 62 320Q80 385 113 438.50Q146 492 192.50 524Q239 556 297 556Q349 556 381.50 534Q414 512 432 476L436 476L464 546L577 546L461 0L351 0L358 71L354 71Q325 35 287.50 12.50Q250-10 198-10M256 109Q286 109 312 133Q338 157 356.50 194.50Q375 232 383 275Q390 311 390 357Q390 392 372 414.50Q354 437 322 437Q295 437 271.50 415.50Q248 394 230.50 359Q213 324 203 281Q193 238 193 195Q193 109 256 109M354-240Q304-240 275-214Q246-188 246-145Q246-96 275.50-62.50Q305-29 351 0L448 0Q413-28 384-57.50Q355-87 355-122Q355-151 384-151Q398-151 409.50-148.50Q421-146 434-142L434-228Q416-233 397-236.50Q378-240 354-240Z"  horiz-adv-x="594" vert-adv-y="1000"  />

      
      <glyph glyph-name="uni0106" unicode="&#x0106;" d="M322-10Q192-10 126 66Q60 142 60 270Q60 333 74.50 397.50Q89 462 118.50 520.50Q148 579 193 625.50Q238 672 300 698.50Q362 725 442 725Q510 725 557.50 712.50Q605 700 652 674L594 552Q560 572 523.50 585.50Q487 599 442 599Q382 599 338.50 569Q295 539 267 491Q239 443 225.50 386.50Q212 330 212 278Q212 197 245.50 157Q279 117 352 117Q392 117 434 127.50Q476 138 517 155L517 28Q487 16 437 3Q387-10 322-10M368 774L368 786Q393 814 423 856.50Q453 899 476 934L640 934L640 926Q629 912 608.50 892Q588 872 563 850Q538 828 513.50 808Q489 788 470 774L368 774Z"  horiz-adv-x="612" vert-adv-y="1000"  />

      
      <glyph glyph-name="uni0107" unicode="&#x0107;" d="M247-10Q190-10 144 10Q98 30 71 74.50Q44 119 44 191Q44 264 63 330Q82 396 119 447Q156 498 210 527Q264 556 333 556Q382 556 420.50 547Q459 538 493 521L448 409Q422 420 396.50 428.50Q371 437 339 437Q292 437 259.50 402.50Q227 368 210 314Q193 260 193 203Q193 156 215 132.50Q237 109 277 109Q314 109 345.50 120.50Q377 132 411 149L411 29Q376 11 337 0.50Q298-10 247-10M260 606L260 618Q285 646 315 688.50Q345 731 368 766L532 766L532 758Q521 744 500.50 724Q480 704 455 682Q430 660 405.50 640Q381 620 362 606L260 606Z"  horiz-adv-x="483" vert-adv-y="1000"  />

      
      <glyph glyph-name="uni0108" unicode="&#x0108;" d="M322-10Q192-10 126 66Q60 142 60 270Q60 333 74.50 397.50Q89 462 118.50 520.50Q148 579 193 625.50Q238 672 300 698.50Q362 725 442 725Q510 725 557.50 712.50Q605 700 652 674L594 552Q560 572 523.50 585.50Q487 599 442 599Q382 599 338.50 569Q295 539 267 491Q239 443 225.50 386.50Q212 330 212 278Q212 197 245.50 157Q279 117 352 117Q392 117 434 127.50Q476 138 517 155L517 28Q487 16 437 3Q387-10 322-10M243 774L243 786Q263 804 290 830.50Q317 857 343.50 884.50Q370 912 387 934L552 934Q567 899 592.50 857Q618 815 638 786L638 774L541 774Q524 789 501.50 812Q479 835 462 856Q433 832 405.50 812.50Q378 793 349 774L243 774Z"  horiz-adv-x="612" vert-adv-y="1000"  />

      
      <glyph glyph-name="uni0109" unicode="&#x0109;" d="M247-10Q190-10 144 10Q98 30 71 74.50Q44 119 44 191Q44 264 63 330Q82 396 119 447Q156 498 210 527Q264 556 333 556Q382 556 420.50 547Q459 538 493 521L448 409Q422 420 396.50 428.50Q371 437 339 437Q292 437 259.50 402.50Q227 368 210 314Q193 260 193 203Q193 156 215 132.50Q237 109 277 109Q314 109 345.50 120.50Q377 132 411 149L411 29Q376 11 337 0.50Q298-10 247-10M135 606L135 618Q155 636 182 662.50Q209 689 235.50 716.50Q262 744 279 766L444 766Q459 731 484.50 689Q510 647 530 618L530 606L433 606Q416 621 393.50 644Q371 667 354 688Q325 664 297.50 644.50Q270 625 241 606L135 606Z"  horiz-adv-x="483" vert-adv-y="1000"  />

      
      <glyph glyph-name="uni010A" unicode="&#x010A;" d="M322-10Q192-10 126 66Q60 142 60 270Q60 333 74.50 397.50Q89 462 118.50 520.50Q148 579 193 625.50Q238 672 300 698.50Q362 725 442 725Q510 725 557.50 712.50Q605 700 652 674L594 552Q560 572 523.50 585.50Q487 599 442 599Q382 599 338.50 569Q295 539 267 491Q239 443 225.50 386.50Q212 330 212 278Q212 197 245.50 157Q279 117 352 117Q392 117 434 127.50Q476 138 517 155L517 28Q487 16 437 3Q387-10 322-10M454 782Q422 782 401 795.50Q380 809 380 842Q380 884 403.50 906Q427 928 469 928Q498 928 520 915Q542 902 542 869Q542 830 520.50 806Q499 782 454 782Z"  horiz-adv-x="612" vert-adv-y="1000"  />

      
      <glyph glyph-name="uni010B" unicode="&#x010B;" d="M247-10Q190-10 144 10Q98 30 71 74.50Q44 119 44 191Q44 264 63 330Q82 396 119 447Q156 498 210 527Q264 556 333 556Q382 556 420.50 547Q459 538 493 521L448 409Q422 420 396.50 428.50Q371 437 339 437Q292 437 259.50 402.50Q227 368 210 314Q193 260 193 203Q193 156 215 132.50Q237 109 277 109Q314 109 345.50 120.50Q377 132 411 149L411 29Q376 11 337 0.50Q298-10 247-10M346 614Q314 614 293 627.50Q272 641 272 674Q272 716 295.50 738Q319 760 361 760Q390 760 412 747Q434 734 434 701Q434 662 412.50 638Q391 614 346 614Z"  horiz-adv-x="483" vert-adv-y="1000"  />

      
      <glyph glyph-name="uni010C" unicode="&#x010C;" d="M322-10Q192-10 126 66Q60 142 60 270Q60 333 74.50 397.50Q89 462 118.50 520.50Q148 579 193 625.50Q238 672 300 698.50Q362 725 442 725Q510 725 557.50 712.50Q605 700 652 674L594 552Q560 572 523.50 585.50Q487 599 442 599Q382 599 338.50 569Q295 539 267 491Q239 443 225.50 386.50Q212 330 212 278Q212 197 245.50 157Q279 117 352 117Q392 117 434 127.50Q476 138 517 155L517 28Q487 16 437 3Q387-10 322-10M366 774Q351 809 325.50 851Q300 893 280 922L280 934L377 934Q394 919 416.50 896Q439 873 456 852Q485 876 512.50 895.50Q540 915 569 934L675 934L675 922Q655 904 628 877.50Q601 851 575 823.50Q549 796 531 774L366 774Z"  horiz-adv-x="612" vert-adv-y="1000"  />

      
      <glyph glyph-name="uni010D" unicode="&#x010D;" d="M247-10Q190-10 144 10Q98 30 71 74.50Q44 119 44 191Q44 264 63 330Q82 396 119 447Q156 498 210 527Q264 556 333 556Q382 556 420.50 547Q459 538 493 521L448 409Q422 420 396.50 428.50Q371 437 339 437Q292 437 259.50 402.50Q227 368 210 314Q193 260 193 203Q193 156 215 132.50Q237 109 277 109Q314 109 345.50 120.50Q377 132 411 149L411 29Q376 11 337 0.50Q298-10 247-10M258 606Q243 641 217.50 683Q192 725 172 754L172 766L269 766Q286 751 308.50 728Q331 705 348 684Q377 708 404.50 727.50Q432 747 461 766L567 766L567 754Q547 736 520 709.50Q493 683 467 655.50Q441 628 423 606L258 606Z"  horiz-adv-x="483" vert-adv-y="1000"  />

      
      <glyph glyph-name="uni010E" unicode="&#x010E;" d="M26 0L177 714L370 714Q501 714 573.50 644.50Q646 575 646 444Q646 308 599.50 208.50Q553 109 463.50 54.50Q374 0 246 0L26 0M201 125L253 125Q335 125 388 168.50Q441 212 467 283Q493 354 493 436Q493 515 456.50 552.50Q420 590 356 590L300 590L201 125M359 774Q344 809 318.50 851Q293 893 273 922L273 934L370 934Q387 919 409.50 896Q432 873 449 852Q478 876 505.50 895.50Q533 915 562 934L668 934L668 922Q648 904 621 877.50Q594 851 568 823.50Q542 796 524 774L359 774Z"  horiz-adv-x="677" vert-adv-y="1000"  />

      
      <glyph glyph-name="uni010F" unicode="&#x010F;" d="M198-10Q158-10 123 9.50Q88 29 66 72.50Q44 116 44 189Q44 255 62 320.50Q80 386 113 439Q146 492 192.50 524Q239 556 297 556Q346 556 374 533Q402 510 421 476L425 476Q425 479 426.50 497.50Q428 516 431 540Q434 564 438 585L475 760L622 760L461 0L349 0L358 71L354 71Q325 35 287.50 12.50Q250-10 198-10M260 109Q294 109 319 135.50Q344 162 359.50 201.50Q375 241 382.50 281.50Q390 322 390 351Q390 390 372 413.50Q354 437 322 437Q295 437 271.50 415.50Q248 394 230.50 359Q213 324 203 281Q193 238 193 195Q193 109 260 109M629 600L629 613Q643 642 661.50 685Q680 728 690 760L828 760L828 750Q810 717 780 677Q750 637 717 600L629 600Z"  horiz-adv-x="675" vert-adv-y="1000"  />

      
      <glyph glyph-name="uni0110" unicode="&#x0110;" d="M26 0L87 291L18 291L45 415L113 415L177 714L370 714Q501 714 573.50 644.50Q646 575 646 444Q646 308 599.50 208.50Q553 109 463.50 54.50Q374 0 246 0L26 0M201 125L253 125Q335 125 388 168.50Q441 212 467 283Q493 354 493 436Q493 515 456.50 552.50Q420 590 356 590L300 590L263 415L379 415L352 291L236 291L201 125Z"  horiz-adv-x="677" vert-adv-y="1000"  />

      
      <glyph glyph-name="uni0111" unicode="&#x0111;" d="M203-10Q135-10 89.50 39Q44 88 44 189Q44 244 59.50 303Q75 362 105.50 412.50Q136 463 182.50 494.50Q229 526 291 526Q341 526 370.50 505Q400 484 417 453L421 453Q421 466 423.50 492Q426 518 430 540L438 584L294 584L314 681L458 681L475 760L622 760L605 681L680 681L660 584L584 584L461 0L351 0L358 71L354 71Q327 39 291.50 14.50Q256-10 203-10M262 109Q293 109 316.50 131Q340 153 356 187Q372 221 380.50 259Q389 297 389 329Q389 364 373 385.50Q357 407 322 407Q284 407 254.50 375Q225 343 209 294.50Q193 246 193 195Q193 152 211.50 130.50Q230 109 262 109Z"  horiz-adv-x="594" vert-adv-y="1000"  />

      
      <glyph glyph-name="uni0112" unicode="&#x0112;" d="M26 0L177 714L576 714L550 590L300 590L267 433L500 433L473 309L240 309L201 125L451 125L425 0L26 0M225 774L247 877L549 877L527 774L225 774Z"  horiz-adv-x="542" vert-adv-y="1000"  />

      
      <glyph glyph-name="uni0113" unicode="&#x0113;" d="M260-10Q164-10 104 42Q44 94 44 201Q44 270 63.50 333.50Q83 397 121.50 447Q160 497 217 526.50Q274 556 349 556Q440 556 486 514Q532 472 532 407Q532 321 454.50 269Q377 217 218 217L193 217Q192 211 192 206.50Q192 202 192 197Q192 153 217 127Q242 101 289 101Q332 101 367 110.50Q402 120 450 143L450 32Q407 11 362.50 0.50Q318-10 260-10M209 316L231 316Q316 316 353.50 342.50Q391 369 391 404Q391 450 340 450Q312 450 285.50 433Q259 416 238.50 386Q218 356 209 316M200 606L222 709L524 709L502 606L200 606Z"  horiz-adv-x="557" vert-adv-y="1000"  />

      
      <glyph glyph-name="uni0114" unicode="&#x0114;" d="M26 0L177 714L576 714L550 590L300 590L267 433L500 433L473 309L240 309L201 125L451 125L425 0L26 0M377 774Q318 774 283.50 793.50Q249 813 234 843.50Q219 874 219 907Q219 926 222 939L307 939Q307 878 382 878Q420 878 444.50 891Q469 904 477 939L569 939Q556 860 509.50 817Q463 774 377 774Z"  horiz-adv-x="542" vert-adv-y="1000"  />

      
      <glyph glyph-name="uni0115" unicode="&#x0115;" d="M260-10Q164-10 104 42Q44 94 44 201Q44 270 63.50 333.50Q83 397 121.50 447Q160 497 217 526.50Q274 556 349 556Q440 556 486 514Q532 472 532 407Q532 321 454.50 269Q377 217 218 217L193 217Q192 211 192 206.50Q192 202 192 197Q192 153 217 127Q242 101 289 101Q332 101 367 110.50Q402 120 450 143L450 32Q407 11 362.50 0.50Q318-10 260-10M209 316L231 316Q316 316 353.50 342.50Q391 369 391 404Q391 450 340 450Q312 450 285.50 433Q259 416 238.50 386Q218 356 209 316M352 606Q293 606 258.50 625.50Q224 645 209 675.50Q194 706 194 739Q194 758 197 771L282 771Q282 710 357 710Q395 710 419.50 723Q444 736 452 771L544 771Q531 692 484.50 649Q438 606 352 606Z"  horiz-adv-x="557" vert-adv-y="1000"  />

      
      <glyph glyph-name="uni0116" unicode="&#x0116;" d="M26 0L177 714L576 714L550 590L300 590L267 433L500 433L473 309L240 309L201 125L451 125L425 0L26 0M386 782Q354 782 333 795.50Q312 809 312 842Q312 884 335.50 906Q359 928 401 928Q430 928 452 915Q474 902 474 869Q474 830 452.50 806Q431 782 386 782Z"  horiz-adv-x="542" vert-adv-y="1000"  />

      
      <glyph glyph-name="uni0117" unicode="&#x0117;" d="M260-10Q164-10 104 42Q44 94 44 201Q44 270 63.50 333.50Q83 397 121.50 447Q160 497 217 526.50Q274 556 349 556Q440 556 486 514Q532 472 532 407Q532 321 454.50 269Q377 217 218 217L193 217Q192 211 192 206.50Q192 202 192 197Q192 153 217 127Q242 101 289 101Q332 101 367 110.50Q402 120 450 143L450 32Q407 11 362.50 0.50Q318-10 260-10M209 316L231 316Q316 316 353.50 342.50Q391 369 391 404Q391 450 340 450Q312 450 285.50 433Q259 416 238.50 386Q218 356 209 316M361 614Q329 614 308 627.50Q287 641 287 674Q287 716 310.50 738Q334 760 376 760Q405 760 427 747Q449 734 449 701Q449 662 427.50 638Q406 614 361 614Z"  horiz-adv-x="557" vert-adv-y="1000"  />

      
      <glyph glyph-name="uni0118" unicode="&#x0118;" d="M26 0L177 714L576 714L550 590L300 590L267 433L500 433L473 309L240 309L201 125L451 125L425 0L26 0M295-240Q245-240 216-214Q187-188 187-145Q187-96 216.50-62.50Q246-29 292 0L389 0Q354-28 325-57.50Q296-87 296-122Q296-151 325-151Q339-151 350.50-148.50Q362-146 375-142L375-228Q357-233 338-236.50Q319-240 295-240Z"  horiz-adv-x="542" vert-adv-y="1000"  />

      
      </font>
</defs>
</svg>
